  0
SECTION
  2
HEADER
  9
$ACADVER
  1
AC1015
  9
$ACADMAINTVER
 70
     6
  9
$DWGCODEPAGE
  3
ANSI_1252
  9
$INSBASE
 10
0.0
 20
0.0
 30
0.0
  9
$EXTMIN
 10
0.0
 20
0.0
 30
0.0
  9
$EXTMAX
 10
594.0000000000002
 20
420.0000000000002
 30
0.0
  9
$LIMMIN
 10
0.0
 20
0.0
  9
$LIMMAX
 10
12.0
 20
9.0
  9
$ORTHOMODE
 70
     0
  9
$REGENMODE
 70
     1
  9
$FILLMODE
 70
     1
  9
$QTEXTMODE
 70
     0
  9
$MIRRTEXT
 70
     1
  9
$LTSCALE
 40
1.0
  9
$ATTMODE
 70
     1
  9
$TEXTSIZE
 40
0.2
  9
$TRACEWID
 40
0.05
  9
$TEXTSTYLE
  7
Standard
  9
$CLAYER
  8
0
  9
$CELTYPE
  6
ByLayer
  9
$CECOLOR
 62
   256
  9
$CELTSCALE
 40
1.0
  9
$DISPSILH
 70
     0
  9
$DIMSCALE
 40
1.0
  9
$DIMASZ
 40
0.18
  9
$DIMEXO
 40
0.0625
  9
$DIMDLI
 40
0.38
  9
$DIMRND
 40
0.0
  9
$DIMDLE
 40
0.0
  9
$DIMEXE
 40
0.18
  9
$DIMTP
 40
0.0
  9
$DIMTM
 40
0.0
  9
$DIMTXT
 40
0.18
  9
$DIMCEN
 40
0.09
  9
$DIMTSZ
 40
0.0
  9
$DIMTOL
 70
     0
  9
$DIMLIM
 70
     0
  9
$DIMTIH
 70
     1
  9
$DIMTOH
 70
     1
  9
$DIMSE1
 70
     0
  9
$DIMSE2
 70
     0
  9
$DIMTAD
 70
     0
  9
$DIMZIN
 70
     0
  9
$DIMBLK
  1

  9
$DIMASO
 70
     1
  9
$DIMSHO
 70
     1
  9
$DIMPOST
  1

  9
$DIMAPOST
  1

  9
$DIMALT
 70
     0
  9
$DIMALTD
 70
     2
  9
$DIMALTF
 40
25.4
  9
$DIMLFAC
 40
1.0
  9
$DIMTOFL
 70
     0
  9
$DIMTVP
 40
0.0
  9
$DIMTIX
 70
     0
  9
$DIMSOXD
 70
     0
  9
$DIMSAH
 70
     0
  9
$DIMBLK1
  1

  9
$DIMBLK2
  1

  9
$DIMSTYLE
  2
Standard
  9
$DIMCLRD
 70
     0
  9
$DIMCLRE
 70
     0
  9
$DIMCLRT
 70
     0
  9
$DIMTFAC
 40
1.0
  9
$DIMGAP
 40
0.09
  9
$DIMJUST
 70
     0
  9
$DIMSD1
 70
     0
  9
$DIMSD2
 70
     0
  9
$DIMTOLJ
 70
     1
  9
$DIMTZIN
 70
     0
  9
$DIMALTZ
 70
     0
  9
$DIMALTTZ
 70
     0
  9
$DIMUPT
 70
     0
  9
$DIMDEC
 70
     4
  9
$DIMTDEC
 70
     4
  9
$DIMALTU
 70
     2
  9
$DIMALTTD
 70
     2
  9
$DIMTXSTY
  7
Standard
  9
$DIMAUNIT
 70
     0
  9
$DIMADEC
 70
     0
  9
$DIMALTRND
 40
0.0
  9
$DIMAZIN
 70
     0
  9
$DIMDSEP
 70
    46
  9
$DIMATFIT
 70
     3
  9
$DIMFRAC
 70
     0
  9
$DIMLDRBLK
  1

  9
$DIMLUNIT
 70
     2
  9
$DIMLWD
 70
    -2
  9
$DIMLWE
 70
    -2
  9
$DIMTMOVE
 70
     0
  9
$LUNITS
 70
     2
  9
$LUPREC
 70
     4
  9
$SKETCHINC
 40
0.1
  9
$FILLETRAD
 40
0.5
  9
$AUNITS
 70
     0
  9
$AUPREC
 70
     0
  9
$MENU
  1
.
  9
$ELEVATION
 40
0.0
  9
$PELEVATION
 40
0.0
  9
$THICKNESS
 40
0.0
  9
$LIMCHECK
 70
     0
  9
$CHAMFERA
 40
0.5
  9
$CHAMFERB
 40
0.5
  9
$CHAMFERC
 40
1.0
  9
$CHAMFERD
 40
0.0
  9
$SKPOLY
 70
     0
  9
$TDCREATE
 40
2456997.611371667
  9
$TDUCREATE
 40
2456997.569705
  9
$TDUPDATE
 40
2456997.611371852
  9
$TDUUPDATE
 40
2456997.569705185
  9
$TDINDWG
 40
0.0000000116
  9
$TDUSRTIMER
 40
0.0000000116
  9
$USRTIMER
 70
     1
  9
$ANGBASE
 50
0.0
  9
$ANGDIR
 70
     0
  9
$PDMODE
 70
     0
  9
$PDSIZE
 40
0.0
  9
$PLINEWID
 40
0.0
  9
$SPLFRAME
 70
     0
  9
$SPLINETYPE
 70
     6
  9
$SPLINESEGS
 70
     8
  9
$HANDSEED
  5
3B4
  9
$SURFTAB1
 70
     6
  9
$SURFTAB2
 70
     6
  9
$SURFTYPE
 70
     6
  9
$SURFU
 70
     6
  9
$SURFV
 70
     6
  9
$UCSBASE
  2

  9
$UCSNAME
  2

  9
$UCSORG
 10
0.0
 20
0.0
 30
0.0
  9
$UCSXDIR
 10
1.0
 20
0.0
 30
0.0
  9
$UCSYDIR
 10
0.0
 20
1.0
 30
0.0
  9
$UCSORTHOREF
  2

  9
$UCSORTHOVIEW
 70
     0
  9
$UCSORGTOP
 10
0.0
 20
0.0
 30
0.0
  9
$UCSORGBOTTOM
 10
0.0
 20
0.0
 30
0.0
  9
$UCSORGLEFT
 10
0.0
 20
0.0
 30
0.0
  9
$UCSORGRIGHT
 10
0.0
 20
0.0
 30
0.0
  9
$UCSORGFRONT
 10
0.0
 20
0.0
 30
0.0
  9
$UCSORGBACK
 10
0.0
 20
0.0
 30
0.0
  9
$PUCSBASE
  2

  9
$PUCSNAME
  2

  9
$PUCSORG
 10
0.0
 20
0.0
 30
0.0
  9
$PUCSXDIR
 10
1.0
 20
0.0
 30
0.0
  9
$PUCSYDIR
 10
0.0
 20
1.0
 30
0.0
  9
$PUCSORTHOREF
  2

  9
$PUCSORTHOVIEW
 70
     0
  9
$PUCSORGTOP
 10
0.0
 20
0.0
 30
0.0
  9
$PUCSORGBOTTOM
 10
0.0
 20
0.0
 30
0.0
  9
$PUCSORGLEFT
 10
0.0
 20
0.0
 30
0.0
  9
$PUCSORGRIGHT
 10
0.0
 20
0.0
 30
0.0
  9
$PUCSORGFRONT
 10
0.0
 20
0.0
 30
0.0
  9
$PUCSORGBACK
 10
0.0
 20
0.0
 30
0.0
  9
$USERI1
 70
     0
  9
$USERI2
 70
     0
  9
$USERI3
 70
     0
  9
$USERI4
 70
     0
  9
$USERI5
 70
     0
  9
$USERR1
 40
18.1
  9
$USERR2
 40
0.0
  9
$USERR3
 40
0.0
  9
$USERR4
 40
0.0
  9
$USERR5
 40
0.0
  9
$WORLDVIEW
 70
     1
  9
$SHADEDGE
 70
     3
  9
$SHADEDIF
 70
    70
  9
$TILEMODE
 70
     1
  9
$MAXACTVP
 70
    64
  9
$PINSBASE
 10
0.0
 20
0.0
 30
0.0
  9
$PLIMCHECK
 70
     0
  9
$PEXTMIN
 10
1.00000000000000E+20
 20
1.00000000000000E+20
 30
1.00000000000000E+20
  9
$PEXTMAX
 10
-1.00000000000000E+20
 20
-1.00000000000000E+20
 30
-1.00000000000000E+20
  9
$PLIMMIN
 10
0.0
 20
0.0
  9
$PLIMMAX
 10
12.0
 20
9.0
  9
$UNITMODE
 70
     0
  9
$VISRETAIN
 70
     1
  9
$PLINEGEN
 70
     0
  9
$PSLTSCALE
 70
     1
  9
$TREEDEPTH
 70
  3020
  9
$CMLSTYLE
  2
Standard
  9
$CMLJUST
 70
     0
  9
$CMLSCALE
 40
1.0
  9
$PROXYGRAPHICS
 70
     1
  9
$MEASUREMENT
 70
     1
  9
$CELWEIGHT
370
    -1
  9
$ENDCAPS
280
     0
  9
$JOINSTYLE
280
     0
  9
$LWDISPLAY
290
     0
  9
$INSUNITS
 70
     4
  9
$HYPERLINKBASE
  1

  9
$STYLESHEET
  1

  9
$XEDIT
290
     1
  9
$CEPSNTYPE
380
     0
  9
$PSTYLEMODE
290
     1
  9
$FINGERPRINTGUID
  2
{FDBC39D0-CDAA-44C6-BA24-B799915EA0A3}
  9
$VERSIONGUID
  2
{FAEB1C32-E019-11D5-929B-00C0DF256EC4}
  9
$EXTNAMES
290
     1
  9
$PSVPSCALE
 40
0.0
  9
$OLESTARTUP
290
     0
  0
ENDSEC
  0
SECTION
  2
CLASSES
  0
CLASS
  1
ACDBDICTIONARYWDFLT
  2
AcDbDictionaryWithDefault
  3
ObjectDBX Classes
 90
        0
280
     0
281
     0
  0
CLASS
  1
VISUALSTYLE
  2
AcDbVisualStyle
  3
ObjectDBX Classes
 90
     4095
280
     0
281
     0
  0
CLASS
  1
MATERIAL
  2
AcDbMaterial
  3
ObjectDBX Classes
 90
     1153
280
     0
281
     0
  0
CLASS
  1
DICTIONARYVAR
  2
AcDbDictionaryVar
  3
ObjectDBX Classes
 90
        0
280
     0
281
     0
  0
CLASS
  1
ACDBPLACEHOLDER
  2
AcDbPlaceHolder
  3
ObjectDBX Classes
 90
        0
280
     0
281
     0
  0
CLASS
  1
LAYOUT
  2
AcDbLayout
  3
ObjectDBX Classes
 90
        0
280
     0
281
     0
  0
ENDSEC
  0
SECTION
  2
TABLES
  0
TABLE
  2
VPORT
  5
8
330
0
100
AcDbSymbolTable
 70
     1
  0
VPORT
  5
29
330
8
100
AcDbSymbolTableRecord
100
AcDbViewportTableRecord
  2
*Active
 70
     0
 10
0.0
 20
0.0
 11
1.0
 21
1.0
 12
297.0000000000001
 22
210.0000000000001
 13
0.0
 23
0.0
 14
0.5
 24
0.5
 15
0.5
 25
0.5
 16
0.0
 26
0.0
 36
1.0
 17
0.0
 27
0.0
 37
0.0
 40
462.0000000000003
 41
1.60267857142857
 42
50.0
 43
0.0
 44
0.0
 50
0.0
 51
0.0
 71
     0
 72
   100
 73
     1
 74
     3
 75
     0
 76
     0
 77
     0
 78
     0
281
     0
 65
     1
110
0.0
120
0.0
130
0.0
111
1.0
121
0.0
131
0.0
112
0.0
122
1.0
132
0.0
 79
     0
146
0.0
  0
ENDTAB
  0
TABLE
  2
LTYPE
  5
5
330
0
100
AcDbSymbolTable
 70
     8
  0
LTYPE
  5
14
330
5
100
AcDbSymbolTableRecord
100
AcDbLinetypeTableRecord
  2
ByBlock
 70
     0
  3

 72
    65
 73
     0
 40
0.0
  0
LTYPE
  5
15
330
5
100
AcDbSymbolTableRecord
100
AcDbLinetypeTableRecord
  2
ByLayer
 70
     0
  3

 72
    65
 73
     0
 40
0.0
  0
LTYPE
  5
16
330
5
100
AcDbSymbolTableRecord
100
AcDbLinetypeTableRecord
  2
Continuous
 70
     0
  3
Solid line
 72
    65
 73
     0
 40
0.0
  0
LTYPE
  5
3F
330
5
100
AcDbSymbolTableRecord
100
AcDbLinetypeTableRecord
  2
DASHED
 70
     0
  3
Dashed
 72
    65
 73
     2
 40
15.0
 49
7.0
 74
     0
 49
-8.0
 74
     0
  0
LTYPE
  5
40
330
5
100
AcDbSymbolTableRecord
100
AcDbLinetypeTableRecord
  2
DOTTED
 70
     0
  3
Dotted
 72
    65
 73
     2
 40
1.0
 49
0.0
 74
     0
 49
-1.0
 74
     0
  0
LTYPE
  5
41
330
5
100
AcDbSymbolTableRecord
100
AcDbLinetypeTableRecord
  2
DOT_CENTER
 70
     0
  3
Dot_Center
 72
    65
 73
     4
 40
14.0
 49
12.0
 74
     0
 49
-1.0
 74
     0
 49
0.0
 74
     0
 49
-1.0
 74
     0
  0
LTYPE
  5
42
330
5
100
AcDbSymbolTableRecord
100
AcDbLinetypeTableRecord
  2
LONG_DASHED
 70
     0
  3
Long_Dashed
 72
    65
 73
     2
 40
15.0
 49
10.0
 74
     0
 49
-5.0
 74
     0
  0
LTYPE
  5
43
330
5
100
AcDbSymbolTableRecord
100
AcDbLinetypeTableRecord
  2
DASH_CENTER
 70
     0
  3
Dash_Center
 72
    65
 73
     4
 40
14.0
 49
11.0
 74
     0
 49
-1.0
 74
     0
 49
1.0
 74
     0
 49
-1.0
 74
     0
  0
LTYPE
  5
44
330
5
100
AcDbSymbolTableRecord
100
AcDbLinetypeTableRecord
  2
PHANTOM
 70
     0
  3
Phantom
 72
    65
 73
     6
 40
13.0
 49
10.0
 74
     0
 49
-1.0
 74
     0
 49
0.0
 74
     0
 49
-1.0
 74
     0
 49
0.0
 74
     0
 49
-1.0
 74
     0
  0
LTYPE
  5
45
330
5
100
AcDbSymbolTableRecord
100
AcDbLinetypeTableRecord
  2
CENTER_DASH_DASH
 70
     0
  3
Center_Dash_Dash
 72
    65
 73
     6
 40
14.0
 49
9.0
 74
     0
 49
-1.0
 74
     0
 49
1.0
 74
     0
 49
-1.0
 74
     0
 49
1.0
 74
     0
 49
-1.0
 74
     0
  0
ENDTAB
  0
TABLE
  2
LAYER
  5
2
330
0
100
AcDbSymbolTable
 70
     3
  0
LAYER
  5
10
330
2
100
AcDbSymbolTableRecord
100
AcDbLayerTableRecord
  2
0
 70
     0
 62
     7
  6
Continuous
370
    -3
390
F
  0
LAYER
  5
46
330
2
100
AcDbSymbolTableRecord
100
AcDbLayerTableRecord
  2
1
 70
     0
 62
     7
  6
Continuous
370
    -3
390
F
  0
LAYER
  5
47
330
2
100
AcDbSymbolTableRecord
100
AcDbLayerTableRecord
  2
Sichtbare_Kanten_TC_020513_DIN_
 70
     0
 62
     7
  6
Continuous
370
    -3
390
F
  0
ENDTAB
  0
TABLE
  2
STYLE
  5
3
330
0
100
AcDbSymbolTable
 70
     5
  0
STYLE
  5
11
330
3
100
AcDbSymbolTableRecord
100
AcDbTextStyleTableRecord
  2
Standard
 70
     0
 40
0.0
 41
1.0
 50
0.0
 71
     0
 42
0.2
  3
txt
  4

  0
STYLE
  5
98
330
3
100
AcDbSymbolTableRecord
100
AcDbTextStyleTableRecord
  2
CONVERTER_11
 70
     0
 40
0.0
 41
1.2
 50
0.0
 71
     0
 42
0.2
  3
ARIAL.TTF
  4

  0
STYLE
  5
9D
330
3
100
AcDbSymbolTableRecord
100
AcDbTextStyleTableRecord
  2
CONVERTER_12
 70
     0
 40
0.0
 41
1.38
 50
0.0
 71
     0
 42
0.2
  3
ARIAL.TTF
  4

  0
STYLE
  5
A0
330
3
100
AcDbSymbolTableRecord
100
AcDbTextStyleTableRecord
  2
CONVERTER_13
 70
     0
 40
0.0
 41
0.96
 50
0.0
 71
     0
 42
0.2
  3
ARIAL.TTF
  4

  0
STYLE
  5
329
330
3
100
AcDbSymbolTableRecord
100
AcDbTextStyleTableRecord
  2
CONVERTER_14
 70
     0
 40
0.0
 41
0.95
 50
0.0
 71
     0
 42
0.2
  3
simplex.shx
  4

  0
ENDTAB
  0
TABLE
  2
VIEW
  5
6
330
0
100
AcDbSymbolTable
 70
     0
  0
ENDTAB
  0
TABLE
  2
UCS
  5
7
330
0
100
AcDbSymbolTable
 70
     0
  0
ENDTAB
  0
TABLE
  2
APPID
  5
9
330
0
100
AcDbSymbolTable
 70
     1
  0
APPID
  5
12
330
9
100
AcDbSymbolTableRecord
100
AcDbRegAppTableRecord
  2
ACAD
 70
     0
  0
ENDTAB
  0
TABLE
  2
DIMSTYLE
  5
A
330
0
100
AcDbSymbolTable
 70
    10
100
AcDbDimStyleTable
  0
DIMSTYLE
105
27
330
A
100
AcDbSymbolTableRecord
100
AcDbDimStyleTableRecord
  2
Standard
 70
     0
178
     0
340
11
  0
DIMSTYLE
105
32D
102
{ACAD_REACTORS
330
32E
102
}
330
A
100
AcDbSymbolTableRecord
100
AcDbDimStyleTableRecord
  2
ME10_DIM_10
 70
     0
 41
6.0
 42
1.0
 44
2.0
 73
     0
 74
     0
 77
     1
 78
     8
140
6.0
147
4.0
172
     1
173
     1
174
     1
175
     1
176
     2
177
     2
271
     2
178
     4
271
     2
340
329
  0
DIMSTYLE
105
338
102
{ACAD_REACTORS
330
339
102
}
330
A
100
AcDbSymbolTableRecord
100
AcDbDimStyleTableRecord
  2
ME10_DIM_11
 70
     0
 41
6.0
 42
1.0
 44
2.0
 73
     0
 74
     0
 77
     1
 78
     8
140
6.0
147
4.0
172
     1
173
     1
174
     1
175
     1
176
     2
177
     2
271
     2
178
     4
271
     2
340
329
  0
DIMSTYLE
105
343
102
{ACAD_REACTORS
330
344
102
}
330
A
100
AcDbSymbolTableRecord
100
AcDbDimStyleTableRecord
  2
ME10_DIM_12
 70
     0
 41
6.0
 42
1.0
 44
2.0
 73
     0
 74
     0
 77
     1
 78
     8
140
6.0
147
4.0
172
     1
173
     1
174
     1
175
     1
176
     2
177
     2
271
     2
178
     4
271
     2
340
329
  0
DIMSTYLE
105
350
102
{ACAD_REACTORS
330
351
102
}
330
A
100
AcDbSymbolTableRecord
100
AcDbDimStyleTableRecord
  2
ME10_DIM_13
 70
     0
 41
6.0
 42
1.0
 44
2.0
 73
     0
 74
     0
 77
     1
 78
     8
140
6.0
147
4.0
172
     1
173
     1
174
     1
175
     1
176
     2
177
     2
271
     2
178
     4
271
     2
340
329
  0
DIMSTYLE
105
35B
102
{ACAD_REACTORS
330
35C
102
}
330
A
100
AcDbSymbolTableRecord
100
AcDbDimStyleTableRecord
  2
ME10_DIM_14
 70
     0
 41
6.0
 42
1.0
 44
2.0
 73
     0
 74
     0
 77
     1
 78
     8
140
6.0
147
4.0
172
     1
173
     1
174
     1
175
     1
176
     2
177
     2
271
     2
178
     4
271
     2
340
329
  0
DIMSTYLE
105
366
102
{ACAD_REACTORS
330
367
102
}
330
A
100
AcDbSymbolTableRecord
100
AcDbDimStyleTableRecord
  2
ME10_DIM_15
 70
     0
 41
6.0
 42
1.0
 44
2.0
 73
     0
 74
     0
 77
     1
 78
     8
140
6.0
147
4.0
172
     1
173
     1
174
     1
175
     1
176
     2
177
     2
271
     2
178
     4
271
     2
340
329
  0
DIMSTYLE
105
371
102
{ACAD_REACTORS
330
372
102
}
330
A
100
AcDbSymbolTableRecord
100
AcDbDimStyleTableRecord
  2
ME10_DIM_16
 70
     0
 41
6.0
 42
1.0
 44
2.0
 73
     0
 74
     0
 77
     1
 78
     8
140
6.0
147
4.0
172
     1
173
     1
174
     1
175
     1
176
     2
177
     2
271
     2
178
     4
271
     2
340
329
  0
DIMSTYLE
105
37C
102
{ACAD_REACTORS
330
37D
102
}
330
A
100
AcDbSymbolTableRecord
100
AcDbDimStyleTableRecord
  2
ME10_DIM_17
 70
     0
 41
6.0
 42
1.0
 44
2.0
 73
     0
 74
     0
 77
     1
 78
     8
140
6.0
147
4.0
172
     1
173
     1
174
     1
175
     1
176
     2
177
     2
271
     2
178
     4
271
     2
340
329
  0
DIMSTYLE
105
387
102
{ACAD_REACTORS
330
388
102
}
330
A
100
AcDbSymbolTableRecord
100
AcDbDimStyleTableRecord
  2
ME10_DIM_18
 70
     0
 41
6.0
 42
1.0
 44
2.0
 73
     0
 74
     0
 77
     1
 78
     8
140
6.0
147
4.0
172
     1
173
     1
174
     1
175
     1
176
     2
177
     2
271
     2
178
     4
271
     2
340
329
  0
ENDTAB
  0
TABLE
  2
BLOCK_RECORD
  5
1
330
0
100
AcDbSymbolTable
 70
    11
  0
BLOCK_RECORD
  5
1F
330
1
100
AcDbSymbolTableRecord
100
AcDbBlockTableRecord
  2
*Model_Space
340
22
  0
BLOCK_RECORD
  5
1B
330
1
100
AcDbSymbolTableRecord
100
AcDbBlockTableRecord
  2
*Paper_Space
340
1E
  0
BLOCK_RECORD
  5
23
330
1
100
AcDbSymbolTableRecord
100
AcDbBlockTableRecord
  2
*Paper_Space0
340
26
  0
BLOCK_RECORD
  5
48
330
1
100
AcDbSymbolTableRecord
100
AcDbBlockTableRecord
  2
_formato_A4
340
0
102
{BLKREFS
331
4B
102
}
  0
BLOCK_RECORD
  5
323
330
1
100
AcDbSymbolTableRecord
100
AcDbBlockTableRecord
  2
*D2
340
0
  0
BLOCK_RECORD
  5
32F
330
1
100
AcDbSymbolTableRecord
100
AcDbBlockTableRecord
  2
*D3
340
0
  0
BLOCK_RECORD
  5
33A
330
1
100
AcDbSymbolTableRecord
100
AcDbBlockTableRecord
  2
*D4
340
0
  0
BLOCK_RECORD
  5
345
330
1
100
AcDbSymbolTableRecord
100
AcDbBlockTableRecord
  2
*D5
340
0
  0
BLOCK_RECORD
  5
352
330
1
100
AcDbSymbolTableRecord
100
AcDbBlockTableRecord
  2
*D6
340
0
  0
BLOCK_RECORD
  5
35D
330
1
100
AcDbSymbolTableRecord
100
AcDbBlockTableRecord
  2
*D7
340
0
  0
BLOCK_RECORD
  5
368
330
1
100
AcDbSymbolTableRecord
100
AcDbBlockTableRecord
  2
*D8
340
0
  0
BLOCK_RECORD
  5
373
330
1
100
AcDbSymbolTableRecord
100
AcDbBlockTableRecord
  2
*D9
340
0
  0
BLOCK_RECORD
  5
37E
330
1
100
AcDbSymbolTableRecord
100
AcDbBlockTableRecord
  2
*D10
340
0
  0
ENDTAB
  0
ENDSEC
  0
SECTION
  2
BLOCKS
  0
BLOCK
  5
20
330
1F
100
AcDbEntity
  8
0
100
AcDbBlockBegin
  2
*Model_Space
 70
     0
 10
0.0
 20
0.0
 30
0.0
  3
*Model_Space
  1

  0
ENDBLK
  5
21
330
1F
100
AcDbEntity
  8
0
100
AcDbBlockEnd
  0
BLOCK
  5
1C
330
1B
100
AcDbEntity
 67
     1
  8
0
100
AcDbBlockBegin
  2
*Paper_Space
 70
     0
 10
0.0
 20
0.0
 30
0.0
  3
*Paper_Space
  1

  0
ENDBLK
  5
1D
330
1B
100
AcDbEntity
 67
     1
  8
0
100
AcDbBlockEnd
  0
BLOCK
  5
24
330
23
100
AcDbEntity
  8
0
100
AcDbBlockBegin
  2
*Paper_Space0
 70
     0
 10
0.0
 20
0.0
 30
0.0
  3
*Paper_Space0
  1

  0
ENDBLK
  5
25
330
23
100
AcDbEntity
  8
0
100
AcDbBlockEnd
  0
BLOCK
  5
49
330
48
100
AcDbEntity
  8
0
100
AcDbBlockBegin
  2
_formato_A4
 70
     0
 10
297.0000000000001
 20
0.0
 30
0.0
  3
_formato_A4
  1

  0
LINE
  5
4C
330
48
100
AcDbEntity
  8
1
  6
Continuous
 62
     7
100
AcDbLine
 10
108.0000000000001
 20
9.99999999999986
 30
0.0
 11
138.0000000000001
 21
9.99999999999986
 31
0.0
  0
LINE
  5
4D
330
48
100
AcDbEntity
  8
1
  6
Continuous
 62
     7
100
AcDbLine
 10
108.0000000000001
 20
14.99999999999989
 30
0.0
 11
138.0000000000001
 21
14.99999999999989
 31
0.0
  0
LINE
  5
4E
330
48
100
AcDbEntity
  8
1
  6
Continuous
 62
     7
100
AcDbLine
 10
248.0000000000001
 20
20.0
 30
0.0
 11
248.0000000000001
 21
5.0
 31
0.0
  0
LINE
  5
4F
330
48
100
AcDbEntity
  8
1
  6
Continuous
 62
     7
100
AcDbLine
 10
265.3526013774855
 20
20.0
 30
0.0
 11
265.3526013774855
 21
5.0
 31
0.0
  0
LINE
  5
50
330
48
100
AcDbEntity
  8
1
  6
Continuous
 62
     7
100
AcDbLine
 10
138.0000000000001
 20
20.0
 30
0.0
 11
138.0000000000001
 21
5.0
 31
0.0
  0
LINE
  5
51
330
48
100
AcDbEntity
  8
1
  6
Continuous
 62
     7
100
AcDbLine
 10
148.4999999999998
 20
210.0000000000001
 30
0.0
 11
148.4999999999998
 21
195.0000000000001
 31
0.0
  0
LINE
  5
52
330
48
100
AcDbEntity
  8
1
  6
Continuous
 62
     7
100
AcDbLine
 10
0.0
 20
0.0
 30
0.0
 11
297.0000000000001
 21
0.0
 31
0.0
  0
LINE
  5
53
330
48
100
AcDbEntity
  8
1
  6
Continuous
 62
     7
100
AcDbLine
 10
0.0
 20
210.0000000000001
 30
0.0
 11
0.0
 21
0.0
 31
0.0
  0
LINE
  5
54
330
48
100
AcDbEntity
  8
1
  6
Continuous
 62
     7
100
AcDbLine
 10
297.0000000000001
 20
210.0000000000001
 30
0.0
 11
0.0
 21
210.0000000000001
 31
0.0
  0
LINE
  5
55
330
48
100
AcDbEntity
  8
1
  6
Continuous
 62
     7
100
AcDbLine
 10
297.0000000000001
 20
0.0
 30
0.0
 11
297.0000000000001
 21
210.0000000000001
 31
0.0
  0
LINE
  5
56
330
48
100
AcDbEntity
  8
1
  6
Continuous
 62
     7
100
AcDbLine
 10
4.99999999999989
 20
5.0
 30
0.0
 11
292.0000000000001
 21
5.0
 31
0.0
  0
LINE
  5
57
330
48
100
AcDbEntity
  8
1
  6
Continuous
 62
     7
100
AcDbLine
 10
292.0000000000001
 20
5.0
 30
0.0
 11
292.0000000000001
 21
189.0
 31
0.0
  0
LINE
  5
58
330
48
100
AcDbEntity
  8
1
  6
Continuous
 62
     7
100
AcDbLine
 10
292.0000000000001
 20
189.0
 30
0.0
 11
4.99999999999989
 21
189.0
 31
0.0
  0
LINE
  5
59
102
{ACAD_REACTORS
330
A7
102
}
330
48
100
AcDbEntity
  8
1
  6
Continuous
 62
     7
100
AcDbLine
 10
281.0096340220762
 20
10.07749983983263
 30
0.0
 11
281.0096340220762
 21
14.92250016016737
 31
0.0
  0
LINE
  5
5A
102
{ACAD_REACTORS
330
A4
102
}
330
48
100
AcDbEntity
  8
1
  6
Continuous
 62
     7
100
AcDbLine
 10
279.6763006887428
 20
12.5
 30
0.0
 11
279.6763006887428
 21
14.23205080756884
 31
0.0
  0
LINE
  5
5B
102
{ACAD_REACTORS
330
A4
102
}
330
48
100
AcDbEntity
  8
1
  6
Continuous
 62
     7
100
AcDbLine
 10
279.6763006887428
 20
14.23205080756884
 30
0.0
 11
278.8206382560402
 21
12.75
 31
0.0
  0
LINE
  5
5C
102
{ACAD_REACTORS
330
A4
102
}
330
48
100
AcDbEntity
  8
1
  6
Continuous
 62
     7
100
AcDbLine
 10
278.5319631214453
 20
12.75
 30
0.0
 11
277.6763006887428
 21
14.23205080756884
 31
0.0
  0
LINE
  5
5D
102
{ACAD_REACTORS
330
A4
102
}
330
48
100
AcDbEntity
  8
1
  6
Continuous
 62
     7
100
AcDbLine
 10
277.6763006887428
 20
14.23205080756884
 30
0.0
 11
277.6763006887428
 21
12.5
 31
0.0
  0
LINE
  5
5E
330
48
100
AcDbEntity
  8
1
  6
Continuous
 62
     7
100
AcDbLine
 10
270.2598654136012
 20
12.64436426434133
 30
0.0
 11
278.6763006887428
 21
17.5
 31
0.0
  0
LINE
  5
5F
330
48
100
AcDbEntity
  8
1
  6
Continuous
 62
     7
100
AcDbLine
 10
278.6763006887428
 20
17.5
 30
0.0
 11
287.0927359638843
 21
12.64436426434133
 31
0.0
  0
LINE
  5
60
330
48
100
AcDbEntity
  8
1
  6
Continuous
 62
     7
100
AcDbLine
 10
287.0927359638843
 20
12.35563573565855
 30
0.0
 11
278.6763006887428
 21
7.5
 31
0.0
  0
LINE
  5
61
330
48
100
AcDbEntity
  8
1
  6
Continuous
 62
     7
100
AcDbLine
 10
278.6763006887428
 20
7.5
 30
0.0
 11
270.2598654136012
 21
12.35563573565855
 31
0.0
  0
LINE
  5
62
102
{ACAD_REACTORS
330
A4
102
}
330
48
100
AcDbEntity
  8
1
  6
Continuous
 62
     7
100
AcDbLine
 10
277.0096340220761
 20
12.5
 30
0.0
 11
277.0096340220761
 21
15.73121731203457
 31
0.0
  0
LINE
  5
63
102
{ACAD_REACTORS
330
A4
102
}
330
48
100
AcDbEntity
  8
1
  6
Continuous
 62
     7
100
AcDbLine
 10
277.5040677056995
 20
15.86370041827229
 30
0.0
 11
278.6763006887428
 21
13.83333333333326
 31
0.0
  0
LINE
  5
64
102
{ACAD_REACTORS
330
A4
102
}
330
48
100
AcDbEntity
  8
1
  6
Continuous
 62
     7
100
AcDbLine
 10
277.0096340220761
 20
12.5
 30
0.0
 11
277.0096340220761
 21
10.84758507263291
 31
0.0
  0
LINE
  5
65
102
{ACAD_REACTORS
330
A4
102
}
330
48
100
AcDbEntity
  8
1
  6
Continuous
 62
     7
100
AcDbLine
 10
277.6763006887428
 20
10.84758507263291
 30
0.0
 11
277.6763006887428
 21
12.5
 31
0.0
  0
LINE
  5
66
102
{ACAD_REACTORS
330
A4
102
}
330
48
100
AcDbEntity
  8
1
  6
Continuous
 62
     7
100
AcDbLine
 10
279.6763006887428
 20
12.5
 30
0.0
 11
279.6763006887428
 21
9.3082690706018
 31
0.0
  0
LINE
  5
67
102
{ACAD_REACTORS
330
A4
102
}
330
48
100
AcDbEntity
  8
1
  6
Continuous
 62
     7
100
AcDbLine
 10
280.3429673554094
 20
9.3082690706018
 30
0.0
 11
280.3429673554094
 21
15.73121731203457
 31
0.0
  0
LINE
  5
68
102
{ACAD_REACTORS
330
A4
102
}
330
48
100
AcDbEntity
  8
1
  6
Continuous
 62
     7
100
AcDbLine
 10
279.8485336717861
 20
15.86370041827229
 30
0.0
 11
278.6763006887428
 21
13.83333333333326
 31
0.0
  0
LINE
  5
69
102
{ACAD_REACTORS
330
A5
102
}
330
48
100
AcDbEntity
  8
1
  6
Continuous
 62
     7
100
AcDbLine
 10
275.6763006887428
 20
10.27002114803258
 30
0.0
 11
275.6763006887428
 21
14.92250016016737
 31
0.0
  0
LINE
  5
6A
102
{ACAD_REACTORS
330
A5
102
}
330
48
100
AcDbEntity
  8
1
  6
Continuous
 62
     7
100
AcDbLine
 10
276.3429673554094
 20
14.92250016016737
 30
0.0
 11
276.3429673554094
 21
10.2700211480327
 31
0.0
  0
LINE
  5
6B
102
{ACAD_REACTORS
330
A5
102
}
330
48
100
AcDbEntity
  8
1
  6
Continuous
 62
     7
100
AcDbLine
 10
276.3429673554094
 20
10.2700211480327
 30
0.0
 11
278.5095415065727
 21
9.0200745223616
 31
0.0
  0
LINE
  5
6C
102
{ACAD_REACTORS
330
A5
102
}
330
48
100
AcDbEntity
  8
1
  6
Continuous
 62
     7
100
AcDbLine
 10
278.1763932042462
 20
8.44261746499581
 30
0.0
 11
276.0098190530831
 21
9.69256409066691
 31
0.0
  0
LINE
  5
6D
102
{ACAD_REACTORS
330
A6
102
}
330
48
100
AcDbEntity
  8
1
  6
Continuous
 62
     7
100
AcDbLine
 10
275.0096340220761
 20
14.15326939093666
 30
0.0
 11
275.0096340220761
 21
11.0392519172633
 31
0.0
  0
LINE
  5
6E
102
{ACAD_REACTORS
330
A6
102
}
330
48
100
AcDbEntity
  8
1
  6
Continuous
 62
     7
100
AcDbLine
 10
275.0096340220761
 20
11.0392519172633
 30
0.0
 11
275.0096340220761
 21
10.84673060906323
 31
0.0
  0
LINE
  5
6F
102
{ACAD_REACTORS
330
A6
102
}
330
48
100
AcDbEntity
  8
1
  6
Continuous
 62
     7
100
AcDbLine
 10
274.3429673554094
 20
10.84673060906323
 30
0.0
 11
274.3429673554094
 21
14.15326939093666
 31
0.0
  0
LINE
  5
70
102
{ACAD_REACTORS
330
A7
102
}
330
48
100
AcDbEntity
  8
1
  6
Continuous
 62
     7
100
AcDbLine
 10
281.5095415065727
 20
15.21122868885027
 30
0.0
 11
282.8428748399059
 21
14.44199791961944
 31
0.0
  0
LINE
  5
71
102
{ACAD_REACTORS
330
A7
102
}
330
48
100
AcDbEntity
  8
1
  6
Continuous
 62
     7
100
AcDbLine
 10
282.5097265375796
 20
13.86454086225376
 30
0.0
 11
281.6763006887428
 21
14.34536346735195
 31
0.0
  0
LINE
  5
72
102
{ACAD_REACTORS
330
A7
102
}
330
48
100
AcDbEntity
  8
1
  6
Continuous
 62
     7
100
AcDbLine
 10
281.6763006887428
 20
14.34536346735195
 30
0.0
 11
281.6763006887428
 21
12.83333333333326
 31
0.0
  0
LINE
  5
73
102
{ACAD_REACTORS
330
A7
102
}
330
48
100
AcDbEntity
  8
1
  6
Continuous
 62
     7
100
AcDbLine
 10
281.6763006887428
 20
12.83333333333326
 30
0.0
 11
282.6763006887428
 21
12.83333333333326
 31
0.0
  0
LINE
  5
74
102
{ACAD_REACTORS
330
A7
102
}
330
48
100
AcDbEntity
  8
1
  6
Continuous
 62
     7
100
AcDbLine
 10
282.6763006887428
 20
12.16666666666663
 30
0.0
 11
281.6763006887428
 21
12.16666666666663
 31
0.0
  0
LINE
  5
75
102
{ACAD_REACTORS
330
A7
102
}
330
48
100
AcDbEntity
  8
1
  6
Continuous
 62
     7
100
AcDbLine
 10
281.6763006887428
 20
12.16666666666663
 30
0.0
 11
281.6763006887428
 21
10.65463653264794
 31
0.0
  0
LINE
  5
76
102
{ACAD_REACTORS
330
A7
102
}
330
48
100
AcDbEntity
  8
1
  6
Continuous
 62
     7
100
AcDbLine
 10
281.6763006887428
 20
10.65463653264794
 30
0.0
 11
282.5097265375796
 21
11.13545913774624
 31
0.0
  0
LINE
  5
77
102
{ACAD_REACTORS
330
A7
102
}
330
48
100
AcDbEntity
  8
1
  6
Continuous
 62
     7
100
AcDbLine
 10
282.8428748399059
 20
10.55800208038033
 30
0.0
 11
281.5095415065727
 21
9.78877131114973
 31
0.0
  0
LINE
  5
78
330
48
100
AcDbEntity
  8
1
  6
Continuous
 62
     7
100
AcDbLine
 10
108.0000000000001
 20
25.0
 30
0.0
 11
292.0000000000001
 21
25.0
 31
0.0
  0
LINE
  5
79
330
48
100
AcDbEntity
  8
1
  6
Continuous
 62
     7
100
AcDbLine
 10
115.0000000000001
 20
20.0
 30
0.0
 11
115.0000000000001
 21
25.0
 31
0.0
  0
LINE
  5
7A
330
48
100
AcDbEntity
  8
1
  6
Continuous
 62
     7
100
AcDbLine
 10
133.0000000000002
 20
20.0
 30
0.0
 11
133.0000000000002
 21
25.0
 31
0.0
  0
LINE
  5
7B
330
48
100
AcDbEntity
  8
1
  6
Continuous
 62
     7
100
AcDbLine
 10
108.0000000000001
 20
30.0
 30
0.0
 11
292.0000000000001
 21
30.0
 31
0.0
  0
LINE
  5
7C
330
48
100
AcDbEntity
  8
1
  6
Continuous
 62
     7
100
AcDbLine
 10
115.0000000000001
 20
25.0
 30
0.0
 11
115.0000000000001
 21
30.0
 31
0.0
  0
LINE
  5
7D
330
48
100
AcDbEntity
  8
1
  6
Continuous
 62
     7
100
AcDbLine
 10
133.0000000000002
 20
25.0
 30
0.0
 11
133.0000000000002
 21
30.0
 31
0.0
  0
LINE
  5
7E
330
48
100
AcDbEntity
  8
1
  6
Continuous
 62
     7
100
AcDbLine
 10
108.0000000000001
 20
35.0
 30
0.0
 11
292.0000000000001
 21
35.0
 31
0.0
  0
LINE
  5
7F
330
48
100
AcDbEntity
  8
1
  6
Continuous
 62
     7
100
AcDbLine
 10
115.0000000000001
 20
30.0
 30
0.0
 11
115.0000000000001
 21
35.0
 31
0.0
  0
LINE
  5
80
330
48
100
AcDbEntity
  8
1
  6
Continuous
 62
     7
100
AcDbLine
 10
133.0000000000002
 20
30.0
 30
0.0
 11
133.0000000000002
 21
35.0
 31
0.0
  0
LINE
  5
81
330
48
100
AcDbEntity
  8
1
  6
Continuous
 62
     7
100
AcDbLine
 10
108.0000000000001
 20
40.0
 30
0.0
 11
292.0000000000001
 21
40.0
 31
0.0
  0
LINE
  5
82
330
48
100
AcDbEntity
  8
1
  6
Continuous
 62
     7
100
AcDbLine
 10
115.0000000000001
 20
35.0
 30
0.0
 11
115.0000000000001
 21
40.0
 31
0.0
  0
LINE
  5
83
330
48
100
AcDbEntity
  8
1
  6
Continuous
 62
     7
100
AcDbLine
 10
133.0000000000002
 20
35.0
 30
0.0
 11
133.0000000000002
 21
40.0
 31
0.0
  0
LINE
  5
84
330
48
100
AcDbEntity
  8
1
  6
Continuous
 62
     7
100
AcDbLine
 10
4.99999999999989
 20
189.0
 30
0.0
 11
4.99999999999989
 21
5.0
 31
0.0
  0
LINE
  5
85
330
48
100
AcDbEntity
  8
1
  6
Continuous
 62
     7
100
AcDbLine
 10
108.0000000000001
 20
20.0
 30
0.0
 11
292.0000000000001
 21
20.0
 31
0.0
  0
LINE
  5
86
330
48
100
AcDbEntity
  8
1
  6
Continuous
 62
     7
100
AcDbLine
 10
108.0000000000001
 20
4.99999999999989
 30
0.0
 11
108.0000000000001
 21
40.0
 31
0.0
  0
ARC
  5
87
102
{ACAD_REACTORS
330
A4
102
}
330
48
100
AcDbEntity
  8
1
  6
Continuous
 62
     7
100
AcDbCircle
 10
277.2746002345514
 20
15.73121731203457
 30
0.0
 40
0.2649662124753346
100
AcDbArc
 50
30.00000000001307
 51
180.0
  0
ARC
  5
88
102
{ACAD_REACTORS
330
A4
102
}
330
48
100
AcDbEntity
  8
1
  6
Continuous
 62
     7
100
AcDbCircle
 10
277.3429673554094
 20
10.84758507263291
 30
0.0
 40
0.3333333333333144
100
AcDbArc
 50
180.0
 51
0.0
  0
ARC
  5
89
102
{ACAD_REACTORS
330
A4
102
}
330
48
100
AcDbEntity
  8
1
  6
Continuous
 62
     7
100
AcDbCircle
 10
280.0096340220762
 20
9.3082690706018
 30
0.0
 40
0.3333333333334281
100
AcDbArc
 50
180.0
 51
0.0
  0
ARC
  5
8A
102
{ACAD_REACTORS
330
A4
102
}
330
48
100
AcDbEntity
  8
1
  6
Continuous
 62
     7
100
AcDbCircle
 10
280.0780011429341
 20
15.73121731203457
 30
0.0
 40
0.2649662124753149
100
AcDbArc
 50
0.0
 51
149.9999999999746
  0
ARC
  5
8B
102
{ACAD_REACTORS
330
A5
102
}
330
48
100
AcDbEntity
  8
1
  6
Continuous
 62
     7
100
AcDbCircle
 10
276.0096340220761
 20
14.92250016016737
 30
0.0
 40
0.3333333333333144
100
AcDbArc
 50
0.0
 51
180.0
  0
ARC
  5
8C
102
{ACAD_REACTORS
330
A5
102
}
330
48
100
AcDbEntity
  8
1
  6
Continuous
 62
     7
100
AcDbCircle
 10
278.3429673554094
 20
8.7313459936787
 30
0.0
 40
0.3333333333333709
100
AcDbArc
 50
240.0183606311493
 51
60.01836063114089
  0
ARC
  5
8D
102
{ACAD_REACTORS
330
A6
102
}
330
48
100
AcDbEntity
  8
1
  6
Continuous
 62
     7
100
AcDbCircle
 10
274.6763006887428
 20
14.15326939093666
 30
0.0
 40
0.3333333333333144
100
AcDbArc
 50
0.0
 51
180.0
  0
ARC
  5
8E
102
{ACAD_REACTORS
330
A6
102
}
330
48
100
AcDbEntity
  8
1
  6
Continuous
 62
     7
100
AcDbCircle
 10
274.6763006887428
 20
10.84673060906323
 30
0.0
 40
0.3333333333333712
100
AcDbArc
 50
180.0
 51
0.0
  0
ARC
  5
8F
102
{ACAD_REACTORS
330
A7
102
}
330
48
100
AcDbEntity
  8
1
  6
Continuous
 62
     7
100
AcDbCircle
 10
282.6763006887428
 20
14.15326939093666
 30
0.0
 40
0.3333333333333755
100
AcDbArc
 50
240.0183606311498
 51
60.01836063115638
  0
ARC
  5
90
102
{ACAD_REACTORS
330
A7
102
}
330
48
100
AcDbEntity
  8
1
  6
Continuous
 62
     7
100
AcDbCircle
 10
282.6763006887428
 20
12.5
 30
0.0
 40
0.3333333333333695
100
AcDbArc
 50
270.0
 51
90.0
  0
ARC
  5
91
102
{ACAD_REACTORS
330
A7
102
}
330
48
100
AcDbEntity
  8
1
  6
Continuous
 62
     7
100
AcDbCircle
 10
282.6763006887428
 20
10.84673060906323
 30
0.0
 40
0.3333333333333172
100
AcDbArc
 50
299.9816393688334
 51
119.9816393688407
  0
ARC
  5
92
102
{ACAD_REACTORS
330
A4
102
}
330
48
100
AcDbEntity
  8
1
  6
Continuous
 62
     7
100
AcDbCircle
 10
278.6763006887428
 20
12.83333333333326
 30
0.0
 40
0.166666666666709
100
AcDbArc
 50
209.9999999999622
 51
330.0000000000182
  0
ARC
  5
93
102
{ACAD_REACTORS
330
A5
102
}
330
48
100
AcDbEntity
  8
1
  6
Continuous
 62
     7
100
AcDbCircle
 10
276.3429673554094
 20
10.2700211480327
 30
0.0
 40
0.6666666666666288
100
AcDbArc
 50
180.0000000000104
 51
240.018360631158
  0
ARC
  5
94
330
48
100
AcDbEntity
  8
1
  6
Continuous
 62
     7
100
AcDbCircle
 10
270.3431524891829
 20
12.5
 30
0.0
 40
0.1666666666666407
100
AcDbArc
 50
119.9816393689046
 51
240.0183606311158
  0
ARC
  5
95
330
48
100
AcDbEntity
  8
1
  6
Continuous
 62
     7
100
AcDbCircle
 10
287.0094488883027
 20
12.5
 30
0.0
 40
0.166666666666687
100
AcDbArc
 50
299.9816393688503
 51
60.01836063112923
  0
ARC
  5
96
102
{ACAD_REACTORS
330
A7
102
}
330
48
100
AcDbEntity
  8
1
  6
Continuous
 62
     7
100
AcDbCircle
 10
281.3429673554094
 20
14.92250016016737
 30
0.0
 40
0.3333333333334024
100
AcDbArc
 50
60.01836063114121
 51
180.0
  0
ARC
  5
97
102
{ACAD_REACTORS
330
A7
102
}
330
48
100
AcDbEntity
  8
1
  6
Continuous
 62
     7
100
AcDbCircle
 10
281.3429673554094
 20
10.07749983983263
 30
0.0
 40
0.3333333333332007
100
AcDbArc
 50
180.0
 51
299.9816393688589
  0
MTEXT
  5
99
330
48
100
AcDbEntity
  8
1
 62
     7
100
AcDbMText
 10
119.6000000000001
 20
7.49999999999987
 30
0.0
 40
3.0
 41
0.0
 71
     4
 72
     1
  1
Radice
  7
CONVERTER_11
 73
     1
 44
1.32052821128451
  0
MTEXT
  5
9A
330
48
100
AcDbEntity
  8
1
 62
     7
100
AcDbMText
 10
109.0000000000001
 20
7.49999999999987
 30
0.0
 40
3.0
 41
0.0
 71
     4
 72
     1
  1
Sign.
  7
CONVERTER_11
 73
     1
 44
1.32052821128451
  0
MTEXT
  5
9B
330
48
100
AcDbEntity
  8
1
 62
     7
100
AcDbMText
 10
119.6000000000001
 20
12.49999999999987
 30
0.0
 40
3.0
 41
0.0
 71
     4
 72
     1
  1
28/01/14
  7
CONVERTER_11
 73
     1
 44
1.32052821128451
  0
MTEXT
  5
9C
330
48
100
AcDbEntity
  8
1
 62
     7
100
AcDbMText
 10
109.0000000000001
 20
12.49999999999987
 30
0.0
 40
3.0
 41
0.0
 71
     4
 72
     1
  1
Date
  7
CONVERTER_11
 73
     1
 44
1.32052821128451
  0
MTEXT
  5
9E
330
48
100
AcDbEntity
  8
1
 62
     7
100
AcDbMText
 10
123.0000000000001
 20
17.49999999999994
 30
0.0
 40
2.5
 41
0.0
 71
     5
 72
     1
  1
dimensions in mm
  7
CONVERTER_12
 73
     1
 44
0.60024009603842
  0
MTEXT
  5
9F
330
48
100
AcDbEntity
  8
1
 62
     7
100
AcDbMText
 10
151.4999999999998
 20
194.0000000000001
 30
0.0
 40
4.0
 41
0.0
 71
     5
 72
     1
  1
Diritti riservati      All rights reserved
  7
CONVERTER_11
 73
     1
 44
1.32052821128451
  0
MTEXT
  5
A1
330
48
100
AcDbEntity
  8
1
 62
     7
100
AcDbMText
 10
144.2763006887428
 20
12.5
 30
0.0
 40
4.5
 41
0.0
 71
     4
 72
     1
  1
JCHP 48 LP36\PSurface mounting housing, 1 lever + plastic cover 2xPG36 -JEI-
  7
CONVERTER_13
 73
     1
 44
0.90036014405762
  0
MTEXT
  5
A2
330
48
100
AcDbEntity
  8
1
 62
     7
100
AcDbMText
 10
256.6763006887428
 20
16.26063942075598
 30
0.0
 40
3.0
 41
0.0
 71
     5
 72
     1
  1
Scale
  7
CONVERTER_11
 73
     1
 44
1.32052821128451
  0
MTEXT
  5
A3
330
48
100
AcDbEntity
  8
1
 62
     7
100
AcDbMText
 10
256.6763006887428
 20
10.06063942075605
 30
0.0
 40
4.5
 41
0.0
 71
     5
 72
     1
  1
1:2
  7
CONVERTER_11
 73
     1
 44
1.32052821128451
  0
HATCH
  5
A4
330
48
100
AcDbEntity
  8
1
  6
Continuous
 62
     7
100
AcDbHatch
 10
0.0
 20
0.0
 30
0.0
210
0.0
220
0.0
230
1.0
  2
SOLID
 70
     1
 71
     1
 91
        1
 92
        1
 93
       16
 72
     2
 10
277.2746002345514
 20
15.73121731203457
 40
0.2649662124753346
 50
30.00000000001307
 51
180.0
 73
     1
 72
     1
 10
277.0096340220761
 20
15.73121731203457
 11
277.0096340220761
 21
12.5
 72
     1
 10
277.0096340220761
 20
12.5
 11
277.0096340220761
 21
10.84758507263291
 72
     2
 10
277.3429673554094
 20
10.84758507263291
 40
0.3333333333333144
 50
180.0
 51
360.0
 73
     1
 72
     1
 10
277.6763006887428
 20
10.84758507263291
 11
277.6763006887428
 21
12.5
 72
     1
 10
277.6763006887428
 20
12.5
 11
277.6763006887428
 21
14.23205080756884
 72
     1
 10
277.6763006887428
 20
14.23205080756884
 11
278.5319631214453
 21
12.75
 72
     2
 10
278.6763006887428
 20
12.83333333333326
 40
0.166666666666709
 50
209.9999999999622
 51
330.0000000000182
 73
     1
 72
     1
 10
278.8206382560402
 20
12.75
 11
279.6763006887428
 21
14.23205080756884
 72
     1
 10
279.6763006887428
 20
14.23205080756884
 11
279.6763006887428
 21
12.5
 72
     1
 10
279.6763006887428
 20
12.5
 11
279.6763006887428
 21
9.308269070601796
 72
     2
 10
280.0096340220762
 20
9.308269070601796
 40
0.3333333333334281
 50
180.0
 51
360.0
 73
     1
 72
     1
 10
280.3429673554094
 20
9.308269070601796
 11
280.3429673554094
 21
15.73121731203457
 72
     2
 10
280.0780011429341
 20
15.73121731203457
 40
0.2649662124753149
 50
0.0
 51
149.9999999999746
 73
     1
 72
     1
 10
279.8485336717861
 20
15.86370041827229
 11
278.6763006887428
 21
13.83333333333326
 72
     1
 10
278.6763006887428
 20
13.83333333333326
 11
277.5040677056995
 21
15.86370041827229
 97
       16
330
68
330
8A
330
67
330
89
330
66
330
5A
330
5B
330
92
330
5C
330
5D
330
65
330
88
330
64
330
62
330
87
330
63
 75
     0
 76
     1
 98
        1
 10
0.0
 20
0.0
  0
HATCH
  5
A5
330
48
100
AcDbEntity
  8
1
  6
Continuous
 62
     7
100
AcDbHatch
 10
0.0
 20
0.0
 30
0.0
210
0.0
220
0.0
230
1.0
  2
SOLID
 70
     1
 71
     1
 91
        1
 92
        1
 93
        7
 72
     1
 10
276.3429673554094
 20
14.92250016016737
 11
276.3429673554094
 21
10.2700211480327
 72
     1
 10
276.3429673554094
 20
10.2700211480327
 11
278.5095415065727
 21
9.020074522361597
 72
     2
 10
278.3429673554094
 20
8.731345993678701
 40
0.3333333333333709
 50
299.9816393688591
 51
479.9816393688507
 73
     0
 72
     1
 10
278.1763932042462
 20
8.442617464995806
 11
276.0098190530831
 21
9.692564090666906
 72
     2
 10
276.3429673554094
 20
10.2700211480327
 40
0.6666666666666288
 50
119.981639368842
 51
179.9999999999896
 73
     0
 72
     1
 10
275.6763006887428
 20
10.27002114803258
 11
275.6763006887428
 21
14.92250016016737
 72
     2
 10
276.0096340220761
 20
14.92250016016737
 40
0.3333333333333144
 50
180.0
 51
360.0
 73
     0
 97
        7
330
6A
330
6B
330
8C
330
6C
330
93
330
69
330
8B
 75
     0
 76
     1
 98
        1
 10
0.0
 20
0.0
  0
HATCH
  5
A6
330
48
100
AcDbEntity
  8
1
  6
Continuous
 62
     7
100
AcDbHatch
 10
0.0
 20
0.0
 30
0.0
210
0.0
220
0.0
230
1.0
  2
SOLID
 70
     1
 71
     1
 91
        1
 92
        1
 93
        5
 72
     1
 10
275.0096340220761
 20
14.15326939093666
 11
275.0096340220761
 21
11.0392519172633
 72
     1
 10
275.0096340220761
 20
11.0392519172633
 11
275.0096340220761
 21
10.84673060906323
 72
     2
 10
274.6763006887428
 20
10.84673060906323
 40
0.3333333333333712
 50
0.0
 51
180.0
 73
     0
 72
     1
 10
274.3429673554094
 20
10.84673060906323
 11
274.3429673554094
 21
14.15326939093666
 72
     2
 10
274.6763006887428
 20
14.15326939093666
 40
0.3333333333333144
 50
180.0
 51
360.0
 73
     0
 97
        5
330
6D
330
6E
330
8E
330
6F
330
8D
 75
     0
 76
     1
 98
        1
 10
0.0
 20
0.0
  0
HATCH
  5
A7
330
48
100
AcDbEntity
  8
1
  6
Continuous
 62
     7
100
AcDbHatch
 10
0.0
 20
0.0
 30
0.0
210
0.0
220
0.0
230
1.0
  2
SOLID
 70
     1
 71
     1
 91
        1
 92
        1
 93
       14
 72
     1
 10
282.5097265375796
 20
13.86454086225376
 11
281.6763006887428
 21
14.34536346735195
 72
     1
 10
281.6763006887428
 20
14.34536346735195
 11
281.6763006887428
 21
12.83333333333326
 72
     1
 10
281.6763006887428
 20
12.83333333333326
 11
282.6763006887428
 21
12.83333333333326
 72
     2
 10
282.6763006887428
 20
12.5
 40
0.3333333333333695
 50
270.0
 51
450.0
 73
     0
 72
     1
 10
282.6763006887428
 20
12.16666666666663
 11
281.6763006887428
 21
12.16666666666663
 72
     1
 10
281.6763006887428
 20
12.16666666666663
 11
281.6763006887428
 21
10.65463653264794
 72
     1
 10
281.6763006887428
 20
10.65463653264794
 11
282.5097265375796
 21
11.13545913774624
 72
     2
 10
282.6763006887428
 20
10.84673060906323
 40
0.3333333333333172
 50
240.0183606311593
 51
420.0183606311667
 73
     0
 72
     1
 10
282.8428748399059
 20
10.55800208038033
 11
281.5095415065727
 21
9.78877131114973
 72
     2
 10
281.3429673554094
 20
10.07749983983263
 40
0.3333333333332007
 50
60.01836063114119
 51
180.0
 73
     0
 72
     1
 10
281.0096340220762
 20
10.07749983983263
 11
281.0096340220762
 21
14.92250016016737
 72
     2
 10
281.3429673554094
 20
14.92250016016737
 40
0.3333333333334024
 50
180.0
 51
299.9816393688589
 73
     0
 72
     1
 10
281.5095415065727
 20
15.21122868885027
 11
282.8428748399059
 21
14.44199791961944
 72
     2
 10
282.6763006887428
 20
14.15326939093666
 40
0.3333333333333755
 50
299.9816393688436
 51
479.9816393688502
 73
     0
 97
       14
330
70
330
96
330
59
330
97
330
77
330
91
330
76
330
75
330
74
330
90
330
73
330
72
330
71
330
8F
 75
     0
 76
     1
 98
        1
 10
0.0
 20
0.0
  0
ENDBLK
  5
4A
330
48
100
AcDbEntity
  8
0
100
AcDbBlockEnd
  0
BLOCK
  5
32B
330
323
100
AcDbEntity
  8
0
100
AcDbBlockBegin
  2
*D2
 70
     1
 10
0.0
 20
0.0
 30
0.0
  3
*D2
  1

  0
LINE
  5
324
330
323
100
AcDbEntity
  8
1
  6
Continuous
 62
     2
100
AcDbLine
 10
343.8268551131013
 20
354.3085530122259
 30
0.0
 11
511.8294496194997
 21
354.3085530122259
 31
0.0
  0
LINE
  5
325
330
323
100
AcDbEntity
  8
1
  6
Continuous
 62
     2
100
AcDbLine
 10
343.8268551131013
 20
329.4149989007607
 30
0.0
 11
343.8268551131013
 21
356.3085530122259
 31
0.0
  0
LINE
  5
326
330
323
100
AcDbEntity
  8
1
  6
Continuous
 62
     2
100
AcDbLine
 10
511.8294496194997
 20
224.7985025058871
 30
0.0
 11
511.8294496194997
 21
356.3085530122259
 31
0.0
  0
SOLID
  5
327
330
323
100
AcDbEntity
  8
1
 62
     2
100
AcDbTrace
 10
349.8268551131013
 20
355.0984679977503
 30
0.0
 11
349.8268551131013
 21
353.5186380267015
 31
0.0
 12
343.8268551131013
 22
354.3085530122259
 32
0.0
 13
343.8268551131013
 23
354.3085530122259
 33
0.0
  0
SOLID
  5
328
330
323
100
AcDbEntity
  8
1
 62
     2
100
AcDbTrace
 10
505.8294496194997
 20
353.5186380267015
 30
0.0
 11
505.8294496194997
 21
355.0984679977503
 31
0.0
 12
511.8294496194997
 22
354.3085530122259
 32
0.0
 13
511.8294496194997
 23
354.3085530122259
 33
0.0
  0
MTEXT
  5
32A
330
323
100
AcDbEntity
  8
1
 62
     4
100
AcDbMText
 10
421.5281523663005
 20
358.3085530122259
 30
0.0
 40
6.0
 41
0.0
 71
     7
 72
     1
  1
170
  7
CONVERTER_14
 11
0.9999999999970619
 21
2.424068405545306E-6
 31
0.0
 73
     1
 44
0.60024009603842
  0
ENDBLK
  5
32C
330
323
100
AcDbEntity
  8
0
100
AcDbBlockEnd
  0
BLOCK
  5
336
330
32F
100
AcDbEntity
  8
0
100
AcDbBlockBegin
  2
*D3
 70
     1
 10
0.0
 20
0.0
 30
0.0
  3
*D3
  1

  0
LINE
  5
330
330
32F
100
AcDbEntity
  8
1
  6
Continuous
 62
     2
100
AcDbLine
 10
357.8268551131013
 20
97.2985025058871
 30
0.0
 11
477.8268551131011
 21
97.2985025058871
 31
0.0
  0
LINE
  5
331
330
32F
100
AcDbEntity
  8
1
  6
Continuous
 62
     2
100
AcDbLine
 10
357.8268551131013
 20
136.298502505887
 30
0.0
 11
357.8268551131013
 21
95.2985025058871
 31
0.0
  0
LINE
  5
332
330
32F
100
AcDbEntity
  8
1
  6
Continuous
 62
     2
100
AcDbLine
 10
477.8268551131011
 20
136.298502505887
 30
0.0
 11
477.8268551131011
 21
95.2985025058871
 31
0.0
  0
SOLID
  5
333
330
32F
100
AcDbEntity
  8
1
 62
     2
100
AcDbTrace
 10
363.8268551131013
 20
98.08841749141148
 30
0.0
 11
363.8268551131013
 21
96.50858752036272
 31
0.0
 12
357.8268551131013
 22
97.2985025058871
 32
0.0
 13
357.8268551131013
 23
97.2985025058871
 33
0.0
  0
SOLID
  5
334
330
32F
100
AcDbEntity
  8
1
 62
     2
100
AcDbTrace
 10
471.8268551131011
 20
96.50858752036272
 30
0.0
 11
471.8268551131011
 21
98.08841749141148
 31
0.0
 12
477.8268551131011
 22
97.2985025058871
 32
0.0
 13
477.8268551131011
 23
97.2985025058871
 33
0.0
  0
MTEXT
  5
335
330
32F
100
AcDbEntity
  8
1
 62
     4
100
AcDbMText
 10
411.5268551131012
 20
101.2985025058871
 30
0.0
 40
6.0
 41
0.0
 71
     7
 72
     1
  1
120
  7
CONVERTER_14
 11
0.9999999999970619
 21
2.424068405545306E-6
 31
0.0
 73
     1
 44
0.60024009603842
  0
ENDBLK
  5
337
330
32F
100
AcDbEntity
  8
0
100
AcDbBlockEnd
  0
BLOCK
  5
341
330
33A
100
AcDbEntity
  8
0
100
AcDbBlockBegin
  2
*D4
 70
     1
 10
0.0
 20
0.0
 30
0.0
  3
*D4
  1

  0
LINE
  5
33B
330
33A
100
AcDbEntity
  8
1
  6
Continuous
 62
     2
100
AcDbLine
 10
102.6768551147413
 20
97.2985025058871
 30
0.0
 11
243.6768551147413
 21
97.2985025058871
 31
0.0
  0
LINE
  5
33C
330
33A
100
AcDbEntity
  8
1
  6
Continuous
 62
     2
100
AcDbLine
 10
102.6768551147413
 20
136.2985025058871
 30
0.0
 11
102.6768551147413
 21
95.2985025058871
 31
0.0
  0
LINE
  5
33D
330
33A
100
AcDbEntity
  8
1
  6
Continuous
 62
     2
100
AcDbLine
 10
243.6768551147413
 20
136.2985025058871
 30
0.0
 11
243.6768551147413
 21
95.2985025058871
 31
0.0
  0
SOLID
  5
33E
330
33A
100
AcDbEntity
  8
1
 62
     2
100
AcDbTrace
 10
108.6768551147413
 20
98.08841749141148
 30
0.0
 11
108.6768551147413
 21
96.50858752036272
 31
0.0
 12
102.6768551147413
 22
97.2985025058871
 32
0.0
 13
102.6768551147413
 23
97.2985025058871
 33
0.0
  0
SOLID
  5
33F
330
33A
100
AcDbEntity
  8
1
 62
     2
100
AcDbTrace
 10
237.6768551147413
 20
96.50858752036272
 30
0.0
 11
237.6768551147413
 21
98.08841749141148
 31
0.0
 12
243.6768551147413
 22
97.2985025058871
 32
0.0
 13
243.6768551147413
 23
97.2985025058871
 33
0.0
  0
MTEXT
  5
340
330
33A
100
AcDbEntity
  8
1
 62
     4
100
AcDbMText
 10
167.7768551147413
 20
101.2985025058871
 30
0.0
 40
6.0
 41
0.0
 71
     7
 72
     1
  1
141
  7
CONVERTER_14
 11
0.9999999999970619
 21
2.424068405545306E-6
 31
0.0
 73
     1
 44
0.60024009603842
  0
ENDBLK
  5
342
330
33A
100
AcDbEntity
  8
0
100
AcDbBlockEnd
  0
BLOCK
  5
34E
330
345
100
AcDbEntity
  8
0
100
AcDbBlockBegin
  2
*D5
 70
     1
 10
0.0
 20
0.0
 30
0.0
  3
*D5
  1

  0
LINE
  5
346
330
345
100
AcDbEntity
  8
1
  6
Continuous
 62
     2
100
AcDbLine
 10
497.8268551131012
 20
125.298502505887
 30
0.0
 11
497.8268551131012
 21
137.298502505887
 31
0.0
  0
LINE
  5
347
330
345
100
AcDbEntity
  8
1
  6
Continuous
 62
     2
100
AcDbLine
 10
497.8268551131012
 20
137.298502505887
 30
0.0
 11
497.8268551131012
 21
144.298502505887
 31
0.0
  0
LINE
  5
348
330
345
100
AcDbEntity
  8
1
  6
Continuous
 62
     2
100
AcDbLine
 10
497.8268551131012
 20
144.298502505887
 30
0.0
 11
497.8268551131012
 21
156.298502505887
 31
0.0
  0
LINE
  5
349
330
345
100
AcDbEntity
  8
1
  6
Continuous
 62
     2
100
AcDbLine
 10
478.8268551131011
 20
137.298502505887
 30
0.0
 11
499.8268551131012
 21
137.298502505887
 31
0.0
  0
LINE
  5
34A
330
345
100
AcDbEntity
  8
1
  6
Continuous
 62
     2
100
AcDbLine
 10
477.8268551131011
 20
144.298502505887
 30
0.0
 11
499.8268551131012
 21
144.298502505887
 31
0.0
  0
SOLID
  5
34B
330
345
100
AcDbEntity
  8
1
 62
     2
100
AcDbTrace
 10
498.6167700986256
 20
131.298502505887
 30
0.0
 11
497.0369401275768
 21
131.298502505887
 31
0.0
 12
497.8268551131012
 22
137.298502505887
 32
0.0
 13
497.8268551131012
 23
137.298502505887
 33
0.0
  0
SOLID
  5
34C
330
345
100
AcDbEntity
  8
1
 62
     2
100
AcDbTrace
 10
497.0369401275768
 20
150.298502505887
 30
0.0
 11
498.6167700986256
 21
150.298502505887
 31
0.0
 12
497.8268551131012
 22
144.298502505887
 32
0.0
 13
497.8268551131012
 23
144.298502505887
 33
0.0
  0
MTEXT
  5
34D
330
345
100
AcDbEntity
  8
1
 62
     4
100
AcDbMText
 10
493.8268551131012
 20
138.998502505887
 30
0.0
 40
6.0
 41
0.0
 71
     7
 72
     1
  1
7
  7
CONVERTER_14
 11
0.0
 21
1.0
 31
0.0
 73
     1
 44
0.60024009603842
  0
ENDBLK
  5
34F
330
345
100
AcDbEntity
  8
0
100
AcDbBlockEnd
  0
BLOCK
  5
359
330
352
100
AcDbEntity
  8
0
100
AcDbBlockBegin
  2
*D6
 70
     1
 10
0.0
 20
0.0
 30
0.0
  3
*D6
  1

  0
LINE
  5
353
330
352
100
AcDbEntity
  8
1
  6
Continuous
 62
     2
100
AcDbLine
 10
527.8268551131011
 20
137.2985025058871
 30
0.0
 11
527.8268551131011
 21
236.2985025058871
 31
0.0
  0
LINE
  5
354
330
352
100
AcDbEntity
  8
1
  6
Continuous
 62
     2
100
AcDbLine
 10
478.8268551131011
 20
137.2985025058871
 30
0.0
 11
529.8268551131011
 21
137.2985025058871
 31
0.0
  0
LINE
  5
355
330
352
100
AcDbEntity
  8
1
  6
Continuous
 62
     2
100
AcDbLine
 10
439.4493541123005
 20
236.2985025058871
 30
0.0
 11
529.8268551131011
 21
236.2985025058871
 31
0.0
  0
SOLID
  5
356
330
352
100
AcDbEntity
  8
1
 62
     2
100
AcDbTrace
 10
527.0369401275768
 20
143.2985025058871
 30
0.0
 11
528.6167700986255
 21
143.2985025058871
 31
0.0
 12
527.8268551131011
 22
137.2985025058871
 32
0.0
 13
527.8268551131011
 23
137.2985025058871
 33
0.0
  0
SOLID
  5
357
330
352
100
AcDbEntity
  8
1
 62
     2
100
AcDbTrace
 10
528.6167700986255
 20
230.2985025058871
 30
0.0
 11
527.0369401275768
 21
230.2985025058871
 31
0.0
 12
527.8268551131011
 22
236.2985025058871
 32
0.0
 13
527.8268551131011
 23
236.2985025058871
 33
0.0
  0
MTEXT
  5
358
330
352
100
AcDbEntity
  8
1
 62
     4
100
AcDbMText
 10
523.8268551131011
 20
182.2985025058871
 30
0.0
 40
6.0
 41
0.0
 71
     7
 72
     1
  1
99
  7
CONVERTER_14
 11
0.0
 21
1.0
 31
0.0
 73
     1
 44
0.60024009603842
  0
ENDBLK
  5
35A
330
352
100
AcDbEntity
  8
0
100
AcDbBlockEnd
  0
BLOCK
  5
364
330
35D
100
AcDbEntity
  8
0
100
AcDbBlockBegin
  2
*D7
 70
     1
 10
0.0
 20
0.0
 30
0.0
  3
*D7
  1

  0
LINE
  5
35E
330
35D
100
AcDbEntity
  8
1
  6
Continuous
 62
     2
100
AcDbLine
 10
117.6768551147413
 20
117.2985025058871
 30
0.0
 11
228.6768551147413
 21
117.2985025058871
 31
0.0
  0
LINE
  5
35F
330
35D
100
AcDbEntity
  8
1
  6
Continuous
 62
     2
100
AcDbLine
 10
117.6768551147413
 20
133.2985025058871
 30
0.0
 11
117.6768551147413
 21
115.2985025058871
 31
0.0
  0
LINE
  5
360
330
35D
100
AcDbEntity
  8
1
  6
Continuous
 62
     2
100
AcDbLine
 10
228.6768551147413
 20
133.2985025058871
 30
0.0
 11
228.6768551147413
 21
115.2985025058871
 31
0.0
  0
SOLID
  5
361
330
35D
100
AcDbEntity
  8
1
 62
     2
100
AcDbTrace
 10
123.6768551147413
 20
118.0884174914115
 30
0.0
 11
123.6768551147413
 21
116.5085875203627
 31
0.0
 12
117.6768551147413
 22
117.2985025058871
 32
0.0
 13
117.6768551147413
 23
117.2985025058871
 33
0.0
  0
SOLID
  5
362
330
35D
100
AcDbEntity
  8
1
 62
     2
100
AcDbTrace
 10
222.6768551147413
 20
116.5085875203627
 30
0.0
 11
222.6768551147413
 21
118.0884174914115
 31
0.0
 12
228.6768551147413
 22
117.2985025058871
 32
0.0
 13
228.6768551147413
 23
117.2985025058871
 33
0.0
  0
MTEXT
  5
363
330
35D
100
AcDbEntity
  8
1
 62
     4
100
AcDbMText
 10
168.6768551147413
 20
121.2985025058871
 30
0.0
 40
6.0
 41
0.0
 71
     7
 72
     1
  1
111
  7
CONVERTER_14
 11
0.9999999999970619
 21
2.424068405545306E-6
 31
0.0
 73
     1
 44
0.60024009603842
  0
ENDBLK
  5
365
330
35D
100
AcDbEntity
  8
0
100
AcDbBlockEnd
  0
BLOCK
  5
36F
330
368
100
AcDbEntity
  8
0
100
AcDbBlockBegin
  2
*D8
 70
     1
 10
0.0
 20
0.0
 30
0.0
  3
*D8
  1

  0
LINE
  5
369
330
368
100
AcDbEntity
  8
1
  6
Continuous
 62
     2
100
AcDbLine
 10
364.8268551131012
 20
117.2985025058871
 30
0.0
 11
470.8268551131012
 21
117.2985025058871
 31
0.0
  0
LINE
  5
36A
330
368
100
AcDbEntity
  8
1
  6
Continuous
 62
     2
100
AcDbLine
 10
364.8268551131012
 20
133.2985025058871
 30
0.0
 11
364.8268551131012
 21
115.2985025058871
 31
0.0
  0
LINE
  5
36B
330
368
100
AcDbEntity
  8
1
  6
Continuous
 62
     2
100
AcDbLine
 10
470.8268551131012
 20
133.2985025058871
 30
0.0
 11
470.8268551131012
 21
115.2985025058871
 31
0.0
  0
SOLID
  5
36C
330
368
100
AcDbEntity
  8
1
 62
     2
100
AcDbTrace
 10
370.8268551131012
 20
118.0884174914115
 30
0.0
 11
370.8268551131012
 21
116.5085875203627
 31
0.0
 12
364.8268551131012
 22
117.2985025058871
 32
0.0
 13
364.8268551131012
 23
117.2985025058871
 33
0.0
  0
SOLID
  5
36D
330
368
100
AcDbEntity
  8
1
 62
     2
100
AcDbTrace
 10
464.8268551131012
 20
116.5085875203627
 30
0.0
 11
464.8268551131012
 21
118.0884174914115
 31
0.0
 12
470.8268551131012
 22
117.2985025058871
 32
0.0
 13
470.8268551131012
 23
117.2985025058871
 33
0.0
  0
MTEXT
  5
36E
330
368
100
AcDbEntity
  8
1
 62
     4
100
AcDbMText
 10
411.5268551131012
 20
121.2985025058871
 30
0.0
 40
6.0
 41
0.0
 71
     7
 72
     1
  1
106
  7
CONVERTER_14
 11
0.9999999999970619
 21
2.424068405545306E-6
 31
0.0
 73
     1
 44
0.60024009603842
  0
ENDBLK
  5
370
330
368
100
AcDbEntity
  8
0
100
AcDbBlockEnd
  0
BLOCK
  5
37A
330
373
100
AcDbEntity
  8
0
100
AcDbBlockBegin
  2
*D9
 70
     1
 10
0.0
 20
0.0
 30
0.0
  3
*D9
  1

  0
LINE
  5
374
330
373
100
AcDbEntity
  8
1
  6
Continuous
 62
     2
100
AcDbLine
 10
263.6768551147413
 20
189.7985025058871
 30
0.0
 11
263.6768551147413
 21
149.7985025058871
 31
0.0
  0
LINE
  5
375
330
373
100
AcDbEntity
  8
1
  6
Continuous
 62
     2
100
AcDbLine
 10
244.6973462252259
 20
189.7985025058871
 30
0.0
 11
265.6768551147413
 21
189.7985025058871
 31
0.0
  0
LINE
  5
376
330
373
100
AcDbEntity
  8
1
  6
Continuous
 62
     2
100
AcDbLine
 10
244.6973462252259
 20
149.7985025058871
 30
0.0
 11
265.6768551147413
 21
149.7985025058871
 31
0.0
  0
SOLID
  5
377
330
373
100
AcDbEntity
  8
1
 62
     2
100
AcDbTrace
 10
264.4667701002656
 20
183.7985025058871
 30
0.0
 11
262.8869401292169
 21
183.7985025058871
 31
0.0
 12
263.6768551147413
 22
189.7985025058871
 32
0.0
 13
263.6768551147413
 23
189.7985025058871
 33
0.0
  0
SOLID
  5
378
330
373
100
AcDbEntity
  8
1
 62
     2
100
AcDbTrace
 10
262.8869401292169
 20
155.7985025058871
 30
0.0
 11
264.4667701002656
 21
155.7985025058871
 31
0.0
 12
263.6768551147413
 22
149.7985025058871
 32
0.0
 13
263.6768551147413
 23
149.7985025058871
 33
0.0
  0
MTEXT
  5
379
330
373
100
AcDbEntity
  8
1
 62
     4
100
AcDbMText
 10
259.6768551147413
 20
159.5985025058871
 30
0.0
 40
6.0
 41
0.0
 71
     7
 72
     1
  1
PG36
  7
CONVERTER_14
 11
0.0
 21
1.0
 31
0.0
 73
     1
 44
0.60024009603842
  0
ENDBLK
  5
37B
330
373
100
AcDbEntity
  8
0
100
AcDbBlockEnd
  0
BLOCK
  5
385
330
37E
100
AcDbEntity
  8
0
100
AcDbBlockBegin
  2
*D10
 70
     1
 10
0.0
 20
0.0
 30
0.0
  3
*D10
  1

  0
LINE
  5
37F
330
37E
100
AcDbEntity
  8
1
  6
Continuous
 62
     2
100
AcDbLine
 10
84.67685511474131
 20
189.7985025058871
 30
0.0
 11
84.67685511474131
 21
149.7985025058871
 31
0.0
  0
LINE
  5
380
330
37E
100
AcDbEntity
  8
1
  6
Continuous
 62
     2
100
AcDbLine
 10
98.58324341966703
 20
189.7985025058871
 30
0.0
 11
82.67685511474131
 21
189.7985025058871
 31
0.0
  0
LINE
  5
381
330
37E
100
AcDbEntity
  8
1
  6
Continuous
 62
     2
100
AcDbLine
 10
98.58324341966703
 20
149.7985025058871
 30
0.0
 11
82.67685511474131
 21
149.7985025058871
 31
0.0
  0
SOLID
  5
382
330
37E
100
AcDbEntity
  8
1
 62
     2
100
AcDbTrace
 10
85.46677010026569
 20
183.7985025058871
 30
0.0
 11
83.88694012921694
 21
183.7985025058871
 31
0.0
 12
84.67685511474131
 22
189.7985025058871
 32
0.0
 13
84.67685511474131
 23
189.7985025058871
 33
0.0
  0
SOLID
  5
383
330
37E
100
AcDbEntity
  8
1
 62
     2
100
AcDbTrace
 10
83.88694012921694
 20
155.7985025058871
 30
0.0
 11
85.46677010026569
 21
155.7985025058871
 31
0.0
 12
84.67685511474131
 22
149.7985025058871
 32
0.0
 13
84.67685511474131
 23
149.7985025058871
 33
0.0
  0
MTEXT
  5
384
330
37E
100
AcDbEntity
  8
1
 62
     4
100
AcDbMText
 10
80.67685511474131
 20
159.5985025058871
 30
0.0
 40
6.0
 41
0.0
 71
     7
 72
     1
  1
PG36
  7
CONVERTER_14
 11
0.0
 21
1.0
 31
0.0
 73
     1
 44
0.60024009603842
  0
ENDBLK
  5
386
330
37E
100
AcDbEntity
  8
0
100
AcDbBlockEnd
  0
ENDSEC
  0
SECTION
  2
ENTITIES
  0
INSERT
  5
4B
330
1F
100
AcDbEntity
  8
1
100
AcDbBlockReference
  2
_formato_A4
 10
594.0000000000002
 20
0.0
 30
0.0
 41
2.0
 42
2.0
 43
2.0
  0
LINE
  5
A8
330
1F
100
AcDbEntity
  8
0
  6
Continuous
 62
     7
100
AcDbLine
 10
343.3268551131013
 20
267.9566296975071
 30
0.0
 11
343.8268551131013
 21
267.9566296975071
 31
0.0
  0
LINE
  5
A9
330
1F
100
AcDbEntity
  8
0
  6
Continuous
 62
     7
100
AcDbLine
 10
343.3268551131013
 20
267.9566296975071
 30
0.0
 11
343.3268551131013
 21
267.9127748722814
 31
0.0
  0
LINE
  5
AA
330
1F
100
AcDbEntity
  8
0
  6
Continuous
 62
     7
100
AcDbLine
 10
343.3268551131013
 20
267.9127748722814
 30
0.0
 11
343.3268551131013
 21
263.1108243740653
 31
0.0
  0
LINE
  5
AB
330
1F
100
AcDbEntity
  8
0
  6
Continuous
 62
     7
100
AcDbLine
 10
343.8268551131013
 20
267.9127748944861
 30
0.0
 11
343.8268551131013
 21
263.1108243740652
 31
0.0
  0
LINE
  5
AC
330
1F
100
AcDbEntity
  8
0
  6
Continuous
 62
     2
100
AcDbLine
 10
343.8268551131013
 20
267.9127748944861
 30
0.0
 11
343.3268551131013
 21
267.9127748722814
 31
0.0
  0
LINE
  5
AD
330
1F
100
AcDbEntity
  8
0
  6
Continuous
 62
     7
100
AcDbLine
 10
343.3268551131013
 20
262.8216660503867
 30
0.0
 11
343.3268551131013
 21
258.0197155299857
 31
0.0
  0
LINE
  5
AE
330
1F
100
AcDbEntity
  8
0
  6
Continuous
 62
     7
100
AcDbLine
 10
343.8268551131013
 20
262.8216660503868
 30
0.0
 11
343.8268551131013
 21
258.2081413084266
 31
0.0
  0
LINE
  5
AF
330
1F
100
AcDbEntity
  8
0
  6
Continuous
 62
     7
100
AcDbLine
 10
343.3268551131013
 20
258.0197155299857
 30
0.0
 11
343.3268551131013
 21
257.9758607122259
 31
0.0
  0
LINE
  5
B0
330
1F
100
AcDbEntity
  8
0
  6
Continuous
 62
     7
100
AcDbLine
 10
343.3268551131013
 20
257.9758607122259
 30
0.0
 11
343.8268551131013
 21
257.9758607122259
 31
0.0
  0
LINE
  5
B1
330
1F
100
AcDbEntity
  8
0
  6
Continuous
 62
     7
100
AcDbLine
 10
343.8268551131013
 20
258.0197155299857
 30
0.0
 11
343.8268551131013
 21
257.9758607122259
 31
0.0
  0
LINE
  5
B2
330
1F
100
AcDbEntity
  8
0
  6
Continuous
 62
     2
100
AcDbLine
 10
343.8268551131013
 20
258.0197155299857
 30
0.0
 11
343.3268551131013
 21
258.0197155299857
 31
0.0
  0
LINE
  5
B3
330
1F
100
AcDbEntity
  8
0
  6
Continuous
 62
     7
100
AcDbLine
 10
343.8268551131013
 20
258.2081413084266
 30
0.0
 11
343.8268551131013
 21
258.0197155299857
 31
0.0
  0
LINE
  5
B4
330
1F
100
AcDbEntity
  8
0
  6
Continuous
 62
     2
100
AcDbLine
 10
343.8268551131013
 20
263.1108243740652
 30
0.0
 11
343.3268551131013
 21
263.1108243740653
 31
0.0
  0
LINE
  5
B5
330
1F
100
AcDbEntity
  8
0
  6
Continuous
 62
     7
100
AcDbLine
 10
343.8268551131013
 20
263.1108243740652
 30
0.0
 11
343.8268551131013
 21
262.8216660503868
 31
0.0
  0
LINE
  5
B6
330
1F
100
AcDbEntity
  8
0
  6
Continuous
 62
     2
100
AcDbLine
 10
343.8268551131013
 20
262.8216660503868
 30
0.0
 11
343.3268551131013
 21
262.8216660503867
 31
0.0
  0
LINE
  5
B7
330
1F
100
AcDbEntity
  8
0
  6
Continuous
 62
     7
100
AcDbLine
 10
343.3268551131013
 20
262.8216660503867
 30
0.0
 11
343.3268551131013
 21
263.1108243740653
 31
0.0
  0
LINE
  5
B8
330
1F
100
AcDbEntity
  8
0
  6
Continuous
 62
     7
100
AcDbLine
 10
361.1268551131013
 20
257.9272474537378
 30
0.0
 11
361.1268551131013
 21
258.2081413084266
 31
0.0
  0
LINE
  5
B9
330
1F
100
AcDbEntity
  8
0
  6
Continuous
 62
     7
100
AcDbLine
 10
347.3268551131013
 20
246.7081413084266
 30
0.0
 11
348.7858934060546
 21
246.7081413084266
 31
0.0
  0
LINE
  5
BA
330
1F
100
AcDbEntity
  8
0
  6
Continuous
 62
     7
100
AcDbLine
 10
367.9268551131012
 20
242.9272474537378
 30
0.0
 11
366.3292474037816
 21
242.9272474537378
 31
0.0
  0
LINE
  5
BB
330
1F
100
AcDbEntity
  8
0
  6
Continuous
 62
     7
100
AcDbLine
 10
366.3292474037816
 20
242.9272474537378
 30
0.0
 11
361.324462822421
 21
242.9272474537378
 31
0.0
  0
LINE
  5
BC
330
1F
100
AcDbEntity
  8
0
  6
Continuous
 62
     7
100
AcDbLine
 10
367.9268551131012
 20
320.6898585707141
 30
0.0
 11
367.9268551131012
 21
257.9272474537378
 31
0.0
  0
LINE
  5
BD
330
1F
100
AcDbEntity
  8
0
  6
Continuous
 62
     2
100
AcDbLine
 10
367.9268551131012
 20
257.9272474537378
 30
0.0
 11
361.1268551131013
 21
257.9272474537378
 31
0.0
  0
LINE
  5
BE
330
1F
100
AcDbEntity
  8
0
  6
Continuous
 62
     2
100
AcDbLine
 10
360.3268551131013
 20
143.2985025058871
 30
0.0
 11
360.3268551131013
 21
144.2985025058871
 31
0.0
  0
LINE
  5
BF
330
1F
100
AcDbEntity
  8
0
  6
Continuous
 62
     2
100
AcDbLine
 10
360.3268551131013
 20
143.2985025058871
 30
0.0
 11
389.8268551131013
 21
143.2985025058871
 31
0.0
  0
LINE
  5
C0
330
1F
100
AcDbEntity
  8
0
  6
Continuous
 62
     7
100
AcDbLine
 10
368.8268551131013
 20
238.5985025058871
 30
0.0
 11
368.8268551131013
 21
230.5985025058871
 31
0.0
  0
LINE
  5
C1
330
1F
100
AcDbEntity
  8
0
  6
Continuous
 62
     7
100
AcDbLine
 10
371.3268551131013
 20
144.2985025058871
 30
0.0
 11
360.3268551131013
 21
144.2985025058871
 31
0.0
  0
LINE
  5
C2
330
1F
100
AcDbEntity
  8
0
  6
Continuous
 62
     7
100
AcDbLine
 10
367.9268551131012
 20
242.9272474537378
 30
0.0
 11
367.9268551131012
 21
257.9272474537378
 31
0.0
  0
LINE
  5
C3
330
1F
100
AcDbEntity
  8
0
  6
Continuous
 62
     2
100
AcDbLine
 10
347.3268551131013
 20
258.2081413084266
 30
0.0
 11
343.8268551131013
 21
258.2081413084266
 31
0.0
  0
LINE
  5
C4
330
1F
100
AcDbEntity
  8
0
  6
Continuous
 62
     7
100
AcDbLine
 10
361.1268551131013
 20
242.9272474537378
 30
0.0
 11
361.1268551131013
 21
246.7081413084266
 31
0.0
  0
LINE
  5
C5
330
1F
100
AcDbEntity
  8
0
  6
Continuous
 62
     7
100
AcDbLine
 10
343.8268551131013
 20
257.9758607122259
 30
0.0
 11
343.8268551131013
 21
250.2081413084266
 31
0.0
  0
LINE
  5
C6
330
1F
100
AcDbEntity
  8
0
  6
Continuous
 62
     2
100
AcDbLine
 10
347.3268551131013
 20
258.2081413084266
 30
0.0
 11
347.3268551131013
 21
246.7081413084266
 31
0.0
  0
LINE
  5
C7
330
1F
100
AcDbEntity
  8
0
  6
Continuous
 62
     7
100
AcDbLine
 10
348.7858934060546
 20
246.7081413084266
 30
0.0
 11
361.1268551131013
 21
246.7081413084266
 31
0.0
  0
LINE
  5
C8
330
1F
100
AcDbEntity
  8
0
  6
Continuous
 62
     2
100
AcDbLine
 10
361.1268551131013
 20
258.2081413084266
 30
0.0
 11
347.3268551131013
 21
258.2081413084266
 31
0.0
  0
LINE
  5
C9
330
1F
100
AcDbEntity
  8
0
  6
Continuous
 62
     7
100
AcDbLine
 10
510.5299019674153
 20
208.2218251367814
 30
0.0
 11
509.829901967415
 21
207.0093895714832
 31
0.0
  0
LINE
  5
CA
330
1F
100
AcDbEntity
  8
0
  6
Continuous
 62
     2
100
AcDbLine
 10
505.3337495447086
 20
211.2218251367814
 30
0.0
 11
504.6337495447086
 21
210.0093895714832
 31
0.0
  0
LINE
  5
CB
330
1F
100
AcDbEntity
  8
0
  6
Continuous
 62
     7
100
AcDbLine
 10
490.5380799615589
 20
213.5287260462057
 30
0.0
 11
487.3349352270491
 21
211.6793895714832
 31
0.0
  0
LINE
  5
CC
330
1F
100
AcDbEntity
  8
0
  6
Continuous
 62
     7
100
AcDbLine
 10
489.8380799615588
 20
214.7411616115039
 30
0.0
 11
486.634935227049
 21
212.8918251367814
 31
0.0
  0
LINE
  5
CD
330
1F
100
AcDbEntity
  8
0
  6
Continuous
 62
     2
100
AcDbLine
 10
490.5380799615589
 20
213.5287260462057
 30
0.0
 11
489.8380799615588
 21
214.7411616115039
 31
0.0
  0
LINE
  5
CE
330
1F
100
AcDbEntity
  8
0
  6
Continuous
 62
     7
100
AcDbLine
 10
486.634935227049
 20
212.8918251367814
 30
0.0
 11
482.634935227049
 21
219.8200283670569
 31
0.0
  0
LINE
  5
CF
330
1F
100
AcDbEntity
  8
0
  6
Continuous
 62
     7
100
AcDbLine
 10
481.0184305149653
 20
222.6198966590605
 30
0.0
 11
463.4268551131013
 21
235.7459272350475
 31
0.0
  0
LINE
  5
D0
330
1F
100
AcDbEntity
  8
0
  6
Continuous
 62
     7
100
AcDbLine
 10
482.634935227049
 20
219.8200283670569
 30
0.0
 11
481.0184305149653
 21
222.6198966590605
 31
0.0
  0
LINE
  5
D1
330
1F
100
AcDbEntity
  8
0
  6
Continuous
 62
     7
100
AcDbLine
 10
504.6337495447086
 20
210.0093895714832
 30
0.0
 11
498.5380799615589
 21
213.5287260462057
 31
0.0
  0
LINE
  5
D2
330
1F
100
AcDbEntity
  8
0
  6
Continuous
 62
     7
100
AcDbLine
 10
505.3337495447086
 20
211.2218251367814
 30
0.0
 11
499.2380799615587
 21
214.7411616115039
 31
0.0
  0
LINE
  5
D3
330
1F
100
AcDbEntity
  8
0
  6
Continuous
 62
     7
100
AcDbLine
 10
509.829901967415
 20
207.0093895714832
 30
0.0
 11
504.6337495447086
 21
210.0093895714832
 31
0.0
  0
LINE
  5
D4
330
1F
100
AcDbEntity
  8
0
  6
Continuous
 62
     7
100
AcDbLine
 10
510.5299019674153
 20
208.2218251367814
 30
0.0
 11
505.3337495447086
 21
211.2218251367814
 31
0.0
  0
LINE
  5
D5
330
1F
100
AcDbEntity
  8
0
  6
Continuous
 62
     7
100
AcDbLine
 10
487.3349352270491
 20
211.6793895714832
 30
0.0
 11
486.634935227049
 21
212.8918251367814
 31
0.0
  0
LINE
  5
D6
330
1F
100
AcDbEntity
  8
0
  6
Continuous
 62
     7
100
AcDbLine
 10
432.4624813698687
 20
231.0064847661369
 30
0.0
 11
420.9877894711827
 21
242.7785468552626
 31
0.0
  0
LINE
  5
D7
330
1F
100
AcDbEntity
  8
0
  6
Continuous
 62
     2
100
AcDbLine
 10
467.0464779589292
 20
210.820028367057
 30
0.0
 11
482.634935227049
 21
219.8200283670569
 31
0.0
  0
LINE
  5
D8
330
1F
100
AcDbEntity
  8
0
  6
Continuous
 62
     7
100
AcDbLine
 10
471.7464779589291
 20
202.6793895714832
 30
0.0
 11
487.3349352270491
 21
211.6793895714832
 31
0.0
  0
LINE
  5
D9
330
1F
100
AcDbEntity
  8
0
  6
Continuous
 62
     7
100
AcDbLine
 10
477.8268551131011
 20
137.298502505887
 30
0.0
 11
477.8268551131011
 21
143.2985025058871
 31
0.0
  0
LINE
  5
DA
330
1F
100
AcDbEntity
  8
0
  6
Continuous
 62
     7
100
AcDbLine
 10
477.8268551131011
 20
137.298502505887
 30
0.0
 11
475.3268551131011
 21
137.298502505887
 31
0.0
  0
LINE
  5
DB
330
1F
100
AcDbEntity
  8
0
  6
Continuous
 62
     7
100
AcDbLine
 10
475.3268551131011
 20
144.2985025058871
 30
0.0
 11
476.8268551131011
 21
144.2985025058871
 31
0.0
  0
LINE
  5
DC
330
1F
100
AcDbEntity
  8
0
  6
Continuous
 62
     2
100
AcDbLine
 10
475.3268551131013
 20
143.2985025058871
 30
0.0
 11
477.8268551131011
 21
143.2985025058871
 31
0.0
  0
LINE
  5
DD
330
1F
100
AcDbEntity
  8
0
  6
Continuous
 62
     7
100
AcDbLine
 10
407.8268551131013
 20
243.7985025058871
 30
0.0
 11
407.8268551131013
 21
236.2985025058871
 31
0.0
  0
LINE
  5
DE
330
1F
100
AcDbEntity
  8
0
  6
Continuous
 62
     2
100
AcDbLine
 10
494.3431131939951
 20
214.5981467105345
 30
0.0
 11
494.3089940096713
 21
215.9977308920903
 31
0.0
  0
LINE
  5
DF
330
1F
100
AcDbEntity
  8
0
  6
Continuous
 62
     7
100
AcDbLine
 10
462.6862908209563
 20
236.2985025058871
 30
0.0
 11
431.3268551131013
 21
259.6974819914534
 31
0.0
  0
LINE
  5
E0
330
1F
100
AcDbEntity
  8
0
  6
Continuous
 62
     7
100
AcDbLine
 10
372.2268551131012
 20
236.2985025058871
 30
0.0
 11
372.2268551131012
 21
230.7985025058871
 31
0.0
  0
LINE
  5
E1
330
1F
100
AcDbEntity
  8
0
  6
Continuous
 62
     7
100
AcDbLine
 10
372.2268551131012
 20
230.7985025058871
 30
0.0
 11
372.3268551131013
 21
230.7985025058871
 31
0.0
  0
LINE
  5
E2
330
1F
100
AcDbEntity
  8
0
  6
Continuous
 62
     2
100
AcDbLine
 10
388.3268551131011
 20
236.2985025058871
 30
0.0
 11
388.3268551131012
 21
230.7985025058871
 31
0.0
  0
LINE
  5
E3
330
1F
100
AcDbEntity
  8
0
  6
Continuous
 62
     2
100
AcDbLine
 10
388.3268551131013
 20
145.2985025058871
 30
0.0
 11
388.3268551131012
 21
230.7985025058871
 31
0.0
  0
LINE
  5
E4
330
1F
100
AcDbEntity
  8
0
  6
Continuous
 62
     7
100
AcDbLine
 10
372.2268551131012
 20
236.2985025058871
 30
0.0
 11
388.3268551131011
 21
236.2985025058871
 31
0.0
  0
LINE
  5
E5
330
1F
100
AcDbEntity
  8
0
  6
Continuous
 62
     7
100
AcDbLine
 10
422.8268551131013
 20
226.6379566787872
 30
0.0
 11
422.8268551131013
 21
223.7985025058871
 31
0.0
  0
LINE
  5
E6
330
1F
100
AcDbEntity
  8
0
  6
Continuous
 62
     7
100
AcDbLine
 10
422.8268551131013
 20
223.7985025058871
 30
0.0
 11
422.8268551131013
 21
220.9590483329869
 31
0.0
  0
LINE
  5
E7
330
1F
100
AcDbEntity
  8
0
  6
Continuous
 62
     7
100
AcDbLine
 10
422.7858945597146
 20
220.888102573415
 30
0.0
 11
420.3268551131013
 21
219.4683754869649
 31
0.0
  0
LINE
  5
E8
330
1F
100
AcDbEntity
  8
0
  6
Continuous
 62
     7
100
AcDbLine
 10
462.6862908209563
 20
236.2985025058871
 30
0.0
 11
463.4268551131013
 21
236.2985025058871
 31
0.0
  0
LINE
  5
E9
330
1F
100
AcDbEntity
  8
0
  6
Continuous
 62
     7
100
AcDbLine
 10
420.3268551131013
 20
228.1286295248092
 30
0.0
 11
422.7858945597145
 21
226.7089024383592
 31
0.0
  0
LINE
  5
EA
330
1F
100
AcDbEntity
  8
0
  6
Continuous
 62
     7
100
AcDbLine
 10
415.3268551131013
 20
228.1286295248093
 30
0.0
 11
417.7858945597145
 21
229.5483566112593
 31
0.0
  0
LINE
  5
EB
330
1F
100
AcDbEntity
  8
0
  6
Continuous
 62
     7
100
AcDbLine
 10
417.867815666488
 20
229.5483566112593
 30
0.0
 11
420.3268551131013
 21
228.1286295248092
 31
0.0
  0
LINE
  5
EC
330
1F
100
AcDbEntity
  8
0
  6
Continuous
 62
     7
100
AcDbLine
 10
412.8678156664881
 20
226.7089024383592
 30
0.0
 11
415.3268551131013
 21
228.1286295248093
 31
0.0
  0
LINE
  5
ED
330
1F
100
AcDbEntity
  8
0
  6
Continuous
 62
     7
100
AcDbLine
 10
412.8268551131013
 20
223.7985025058871
 30
0.0
 11
412.8268551131013
 21
226.6379566787872
 31
0.0
  0
LINE
  5
EE
330
1F
100
AcDbEntity
  8
0
  6
Continuous
 62
     7
100
AcDbLine
 10
415.3268551131013
 20
219.4683754869649
 30
0.0
 11
412.867815666488
 21
220.8881025734149
 31
0.0
  0
LINE
  5
EF
330
1F
100
AcDbEntity
  8
0
  6
Continuous
 62
     7
100
AcDbLine
 10
412.8268551131013
 20
220.959048332987
 30
0.0
 11
412.8268551131013
 21
223.7985025058871
 31
0.0
  0
LINE
  5
F0
330
1F
100
AcDbEntity
  8
0
  6
Continuous
 62
     7
100
AcDbLine
 10
417.7858945597146
 20
218.0486484005148
 30
0.0
 11
415.3268551131013
 21
219.4683754869649
 31
0.0
  0
LINE
  5
F1
330
1F
100
AcDbEntity
  8
0
  6
Continuous
 62
     7
100
AcDbLine
 10
420.3268551131013
 20
219.4683754869649
 30
0.0
 11
417.867815666488
 21
218.0486484005148
 31
0.0
  0
LINE
  5
F2
330
1F
100
AcDbEntity
  8
0
  6
Continuous
 62
     7
100
AcDbLine
 10
418.8268551131013
 20
162.798502505887
 30
0.0
 11
416.8268551131013
 21
162.798502505887
 31
0.0
  0
LINE
  5
F3
330
1F
100
AcDbEntity
  8
0
  6
Continuous
 62
     7
100
AcDbLine
 10
418.8268551131013
 20
176.7985025058871
 30
0.0
 11
418.8268551131013
 21
162.798502505887
 31
0.0
  0
LINE
  5
F4
330
1F
100
AcDbEntity
  8
0
  6
Continuous
 62
     7
100
AcDbLine
 10
416.8268551131013
 20
162.798502505887
 30
0.0
 11
416.8268551131013
 21
176.7985025058871
 31
0.0
  0
LINE
  5
F5
330
1F
100
AcDbEntity
  8
0
  6
Continuous
 62
     2
100
AcDbLine
 10
390.8268551131013
 20
169.7985025058871
 30
0.0
 11
391.8268551131013
 21
169.7985025058871
 31
0.0
  0
LINE
  5
F6
330
1F
100
AcDbEntity
  8
0
  6
Continuous
 62
     2
100
AcDbLine
 10
390.8268551131013
 20
169.7985025058871
 30
0.0
 11
389.8268551131013
 21
169.7985025058871
 31
0.0
  0
LINE
  5
F7
330
1F
100
AcDbEntity
  8
0
  6
Continuous
 62
     7
100
AcDbLine
 10
416.8268551131013
 20
176.7985025058871
 30
0.0
 11
418.8268551131013
 21
176.7985025058871
 31
0.0
  0
LINE
  5
F8
330
1F
100
AcDbEntity
  8
0
  6
Continuous
 62
     2
100
AcDbLine
 10
444.8268551131013
 20
169.7985025058871
 30
0.0
 11
443.8268551131013
 21
169.7985025058871
 31
0.0
  0
LINE
  5
F9
330
1F
100
AcDbEntity
  8
0
  6
Continuous
 62
     2
100
AcDbLine
 10
443.8268551131013
 20
169.7985025058871
 30
0.0
 11
443.8268551131013
 21
145.2985025058871
 31
0.0
  0
LINE
  5
FA
330
1F
100
AcDbEntity
  8
0
  6
Continuous
 62
     7
100
AcDbLine
 10
444.8268551131013
 20
169.7985025058871
 30
0.0
 11
444.8268551131013
 21
145.2985025058871
 31
0.0
  0
LINE
  5
FB
330
1F
100
AcDbEntity
  8
0
  6
Continuous
 62
     2
100
AcDbLine
 10
445.8268551131013
 20
145.2985025058871
 30
0.0
 11
445.8268551131013
 21
169.7985025058871
 31
0.0
  0
LINE
  5
FC
330
1F
100
AcDbEntity
  8
0
  6
Continuous
 62
     2
100
AcDbLine
 10
447.3268551131013
 20
145.2985025058871
 30
0.0
 11
445.8268551131013
 21
145.2985025058871
 31
0.0
  0
LINE
  5
FD
330
1F
100
AcDbEntity
  8
0
  6
Continuous
 62
     2
100
AcDbLine
 10
444.8268551131013
 20
145.2985025058871
 30
0.0
 11
445.8268551131013
 21
145.2985025058871
 31
0.0
  0
LINE
  5
FE
330
1F
100
AcDbEntity
  8
0
  6
Continuous
 62
     2
100
AcDbLine
 10
444.8268551131013
 20
169.7985025058871
 30
0.0
 11
445.8268551131013
 21
169.7985025058871
 31
0.0
  0
LINE
  5
FF
330
1F
100
AcDbEntity
  8
0
  6
Continuous
 62
     7
100
AcDbLine
 10
372.3268551131013
 20
230.5985025058871
 30
0.0
 11
372.3268551131013
 21
230.7985025058871
 31
0.0
  0
LINE
  5
100
330
1F
100
AcDbEntity
  8
0
  6
Continuous
 62
     7
100
AcDbLine
 10
372.3268551131013
 20
212.5985025058871
 30
0.0
 11
372.3268551131013
 21
230.5985025058871
 31
0.0
  0
LINE
  5
101
330
1F
100
AcDbEntity
  8
0
  6
Continuous
 62
     7
100
AcDbLine
 10
372.3268551131013
 20
230.7985025058871
 30
0.0
 11
388.3268551131012
 21
230.7985025058871
 31
0.0
  0
LINE
  5
102
330
1F
100
AcDbEntity
  8
0
  6
Continuous
 62
     7
100
AcDbLine
 10
390.8268551131013
 20
145.2985025058871
 30
0.0
 11
390.8268551131013
 21
169.7985025058871
 31
0.0
  0
LINE
  5
103
330
1F
100
AcDbEntity
  8
0
  6
Continuous
 62
     2
100
AcDbLine
 10
389.8268551131013
 20
144.2985025058871
 30
0.0
 11
389.8268551131013
 21
145.2985025058871
 31
0.0
  0
LINE
  5
104
330
1F
100
AcDbEntity
  8
0
  6
Continuous
 62
     2
100
AcDbLine
 10
388.3268551131013
 20
144.2985025058871
 30
0.0
 11
388.3268551131013
 21
145.2985025058871
 31
0.0
  0
LINE
  5
105
330
1F
100
AcDbEntity
  8
0
  6
Continuous
 62
     2
100
AcDbLine
 10
389.8268551131013
 20
169.7985025058871
 30
0.0
 11
389.8268551131013
 21
145.2985025058871
 31
0.0
  0
LINE
  5
106
330
1F
100
AcDbEntity
  8
0
  6
Continuous
 62
     2
100
AcDbLine
 10
391.8268551131013
 20
145.2985025058871
 30
0.0
 11
391.8268551131013
 21
169.7985025058871
 31
0.0
  0
LINE
  5
107
330
1F
100
AcDbEntity
  8
0
  6
Continuous
 62
     7
100
AcDbLine
 10
463.3268551131013
 20
145.2985025058871
 30
0.0
 11
463.3268551131013
 21
213.7985025058871
 31
0.0
  0
LINE
  5
108
330
1F
100
AcDbEntity
  8
0
  6
Continuous
 62
     7
100
AcDbLine
 10
371.3268551131013
 20
144.2985025058871
 30
0.0
 11
388.3268551131013
 21
144.2985025058871
 31
0.0
  0
LINE
  5
109
330
1F
100
AcDbEntity
  8
0
  6
Continuous
 62
     2
100
AcDbLine
 10
388.3268551131013
 20
145.2985025058871
 30
0.0
 11
372.3268551131013
 21
145.2985025058871
 31
0.0
  0
LINE
  5
10A
330
1F
100
AcDbEntity
  8
0
  6
Continuous
 62
     2
100
AcDbLine
 10
445.8268551131013
 20
145.2985025058871
 30
0.0
 11
445.8268551131013
 21
144.2985025058871
 31
0.0
  0
LINE
  5
10B
330
1F
100
AcDbEntity
  8
0
  6
Continuous
 62
     2
100
AcDbLine
 10
390.8268551131013
 20
145.2985025058871
 30
0.0
 11
391.8268551131013
 21
145.2985025058871
 31
0.0
  0
LINE
  5
10C
330
1F
100
AcDbEntity
  8
0
  6
Continuous
 62
     2
100
AcDbLine
 10
463.3268551131013
 20
145.2985025058871
 30
0.0
 11
447.3268551131013
 21
145.2985025058871
 31
0.0
  0
LINE
  5
10D
330
1F
100
AcDbEntity
  8
0
  6
Continuous
 62
     2
100
AcDbLine
 10
447.3268551131013
 20
144.2985025058871
 30
0.0
 11
447.3268551131013
 21
145.2985025058871
 31
0.0
  0
LINE
  5
10E
330
1F
100
AcDbEntity
  8
0
  6
Continuous
 62
     2
100
AcDbLine
 10
389.8268551131013
 20
145.2985025058871
 30
0.0
 11
388.3268551131013
 21
145.2985025058871
 31
0.0
  0
LINE
  5
10F
330
1F
100
AcDbEntity
  8
0
  6
Continuous
 62
     2
100
AcDbLine
 10
444.8268551131013
 20
145.2985025058871
 30
0.0
 11
443.8268551131013
 21
145.2985025058871
 31
0.0
  0
LINE
  5
110
330
1F
100
AcDbEntity
  8
0
  6
Continuous
 62
     2
100
AcDbLine
 10
389.8268551131013
 20
145.2985025058871
 30
0.0
 11
390.8268551131013
 21
145.2985025058871
 31
0.0
  0
LINE
  5
111
330
1F
100
AcDbEntity
  8
0
  6
Continuous
 62
     2
100
AcDbLine
 10
445.8268551131013
 20
143.2985025058871
 30
0.0
 11
475.3268551131013
 21
143.2985025058871
 31
0.0
  0
LINE
  5
112
330
1F
100
AcDbEntity
  8
0
  6
Continuous
 62
     2
100
AcDbLine
 10
445.8268551131013
 20
144.2985025058871
 30
0.0
 11
445.8268551131013
 21
143.2985025058871
 31
0.0
  0
LINE
  5
113
330
1F
100
AcDbEntity
  8
0
  6
Continuous
 62
     2
100
AcDbLine
 10
475.3268551131013
 20
143.2985025058871
 30
0.0
 11
475.3268551131011
 21
144.2985025058871
 31
0.0
  0
LINE
  5
114
330
1F
100
AcDbEntity
  8
0
  6
Continuous
 62
     7
100
AcDbLine
 10
464.3268551131013
 20
144.2985025058871
 30
0.0
 11
475.3268551131011
 21
144.2985025058871
 31
0.0
  0
LINE
  5
115
330
1F
100
AcDbEntity
  8
0
  6
Continuous
 62
     7
100
AcDbLine
 10
447.3268551131013
 20
144.2985025058871
 30
0.0
 11
464.3268551131013
 21
144.2985025058871
 31
0.0
  0
LINE
  5
116
330
1F
100
AcDbEntity
  8
0
  6
Continuous
 62
     7
100
AcDbLine
 10
389.8268551131013
 20
144.2985025058871
 30
0.0
 11
388.3268551131013
 21
144.2985025058871
 31
0.0
  0
LINE
  5
117
330
1F
100
AcDbEntity
  8
0
  6
Continuous
 62
     2
100
AcDbLine
 10
389.8268551131013
 20
144.2985025058871
 30
0.0
 11
389.8268551131013
 21
143.2985025058871
 31
0.0
  0
LINE
  5
118
330
1F
100
AcDbEntity
  8
0
  6
Continuous
 62
     7
100
AcDbLine
 10
447.3268551131013
 20
144.2985025058871
 30
0.0
 11
445.8268551131013
 21
144.2985025058871
 31
0.0
  0
LINE
  5
119
330
1F
100
AcDbEntity
  8
0
  6
Continuous
 62
     2
100
AcDbLine
 10
475.3268551131011
 20
137.298502505887
 30
0.0
 11
475.3268551131013
 21
143.2985025058871
 31
0.0
  0
LINE
  5
11A
330
1F
100
AcDbEntity
  8
0
  6
Continuous
 62
     7
100
AcDbLine
 10
361.1268551131013
 20
331.9149989007607
 30
0.0
 11
359.247682048385
 21
331.9149989007607
 31
0.0
  0
LINE
  5
11B
330
1F
100
AcDbEntity
  8
0
  6
Continuous
 62
     7
100
AcDbLine
 10
361.1268551131013
 20
331.9149989007607
 30
0.0
 11
361.1268551131013
 21
335.6898585707141
 31
0.0
  0
LINE
  5
11C
330
1F
100
AcDbEntity
  8
0
  6
Continuous
 62
     7
100
AcDbLine
 10
367.9268551131012
 20
320.6898585707141
 30
0.0
 11
367.9268551131012
 21
335.6898585707141
 31
0.0
  0
LINE
  5
11D
330
1F
100
AcDbEntity
  8
0
  6
Continuous
 62
     7
100
AcDbLine
 10
367.9268551131012
 20
335.6898585707141
 30
0.0
 11
363.4649285780794
 21
335.6898585707141
 31
0.0
  0
LINE
  5
11E
330
1F
100
AcDbEntity
  8
0
  6
Continuous
 62
     7
100
AcDbLine
 10
363.4649285780794
 20
335.6898585707141
 30
0.0
 11
361.1268551131013
 21
335.6898585707141
 31
0.0
  0
LINE
  5
11F
330
1F
100
AcDbEntity
  8
0
  6
Continuous
 62
     7
100
AcDbLine
 10
361.2287789017479
 20
339.3085530122259
 30
0.0
 11
362.8268551131012
 21
339.3085530122259
 31
0.0
  0
LINE
  5
120
330
1F
100
AcDbEntity
  8
0
  6
Continuous
 62
     7
100
AcDbLine
 10
361.1268551131013
 20
320.6898585707141
 30
0.0
 11
361.1268551131013
 21
320.4149989007607
 31
0.0
  0
LINE
  5
121
330
1F
100
AcDbEntity
  8
0
  6
Continuous
 62
     7
100
AcDbLine
 10
361.1268551131013
 20
320.4149989007607
 30
0.0
 11
361.1268551131013
 21
293.808553012226
 31
0.0
  0
LINE
  5
122
330
1F
100
AcDbEntity
  8
0
  6
Continuous
 62
     2
100
AcDbLine
 10
367.9268551131012
 20
320.6898585707141
 30
0.0
 11
361.1268551131013
 21
320.6898585707141
 31
0.0
  0
LINE
  5
123
330
1F
100
AcDbEntity
  8
0
  6
Continuous
 62
     2
100
AcDbLine
 10
360.3268551131013
 20
137.298502505887
 30
0.0
 11
360.3268551131013
 21
143.2985025058871
 31
0.0
  0
LINE
  5
124
330
1F
100
AcDbEntity
  8
0
  6
Continuous
 62
     7
100
AcDbLine
 10
361.1268551131013
 20
320.6898585707141
 30
0.0
 11
361.1268551131013
 21
331.9149989007607
 31
0.0
  0
LINE
  5
125
330
1F
100
AcDbEntity
  8
0
  6
Continuous
 62
     7
100
AcDbLine
 10
359.247682048385
 20
331.9149989007607
 30
0.0
 11
361.2287789017479
 21
339.3085530122259
 31
0.0
  0
LINE
  5
126
330
1F
100
AcDbEntity
  8
0
  6
Continuous
 62
     7
100
AcDbLine
 10
362.8268551131012
 20
339.3085530122259
 30
0.0
 11
363.4649285780794
 21
335.6898585707141
 31
0.0
  0
LINE
  5
127
330
1F
100
AcDbEntity
  8
0
  6
Continuous
 62
     7
100
AcDbLine
 10
343.8268551131013
 20
267.9566296975071
 30
0.0
 11
343.8268551131013
 21
267.9127748944861
 31
0.0
  0
LINE
  5
128
330
1F
100
AcDbEntity
  8
0
  6
Continuous
 62
     7
100
AcDbLine
 10
343.8268551131013
 20
320.4149989007607
 30
0.0
 11
343.8268551131013
 21
267.9566296975071
 31
0.0
  0
LINE
  5
129
330
1F
100
AcDbEntity
  8
0
  6
Continuous
 62
     2
100
AcDbLine
 10
347.3268551131013
 20
320.4149989007607
 30
0.0
 11
343.8268551131013
 21
320.4149989007607
 31
0.0
  0
LINE
  5
12A
330
1F
100
AcDbEntity
  8
0
  6
Continuous
 62
     7
100
AcDbLine
 10
343.8268551131013
 20
320.4149989007607
 30
0.0
 11
343.8268551131013
 21
328.4149989007607
 31
0.0
  0
LINE
  5
12B
330
1F
100
AcDbEntity
  8
0
  6
Continuous
 62
     2
100
AcDbLine
 10
347.3268551131013
 20
320.4149989007607
 30
0.0
 11
347.3268551131013
 21
331.9149989007607
 31
0.0
  0
LINE
  5
12C
330
1F
100
AcDbEntity
  8
0
  6
Continuous
 62
     2
100
AcDbLine
 10
347.3268551131013
 20
258.2081413084266
 30
0.0
 11
347.3268551131013
 21
320.4149989007607
 31
0.0
  0
LINE
  5
12D
330
1F
100
AcDbEntity
  8
0
  6
Continuous
 62
     7
100
AcDbLine
 10
359.247682048385
 20
331.9149989007607
 30
0.0
 11
347.3268551131013
 21
331.9149989007607
 31
0.0
  0
LINE
  5
12E
330
1F
100
AcDbEntity
  8
0
  6
Continuous
 62
     2
100
AcDbLine
 10
361.1268551131013
 20
320.4149989007607
 30
0.0
 11
347.3268551131013
 21
320.4149989007607
 31
0.0
  0
LINE
  5
12F
330
1F
100
AcDbEntity
  8
0
  6
Continuous
 62
     7
100
AcDbLine
 10
361.1268551131013
 20
258.2081413084266
 30
0.0
 11
361.1268551131013
 21
284.808553012226
 31
0.0
  0
LINE
  5
130
330
1F
100
AcDbEntity
  8
0
  6
Continuous
 62
     7
100
AcDbLine
 10
361.1268551131013
 20
246.7081413084266
 30
0.0
 11
361.1268551131013
 21
257.9272474537378
 31
0.0
  0
LINE
  5
131
330
1F
100
AcDbEntity
  8
0
  6
Continuous
 62
     7
100
AcDbLine
 10
361.324462822421
 20
242.9272474537378
 30
0.0
 11
361.1268551131013
 21
242.9272474537378
 31
0.0
  0
LINE
  5
132
330
1F
100
AcDbEntity
  8
0
  6
Continuous
 62
     7
100
AcDbLine
 10
355.2268551131013
 20
293.8085530122259
 30
0.0
 11
361.1268551131013
 21
293.808553012226
 31
0.0
  0
LINE
  5
133
330
1F
100
AcDbEntity
  8
0
  6
Continuous
 62
     7
100
AcDbLine
 10
361.1268551131013
 20
284.808553012226
 30
0.0
 11
355.2268551131013
 21
284.808553012226
 31
0.0
  0
LINE
  5
134
330
1F
100
AcDbEntity
  8
0
  6
Continuous
 62
     7
100
AcDbLine
 10
348.7858934060546
 20
246.7081413084266
 30
0.0
 11
358.4009998336347
 21
232.8827757623524
 31
0.0
  0
LINE
  5
135
330
1F
100
AcDbEntity
  8
0
  6
Continuous
 62
     7
100
AcDbLine
 10
407.8268551131013
 20
218.7985025058871
 30
0.0
 11
407.8268551131013
 21
236.2985025058871
 31
0.0
  0
LINE
  5
136
330
1F
100
AcDbEntity
  8
0
  6
Continuous
 62
     7
100
AcDbLine
 10
432.6811038020366
 20
230.7985025058871
 30
0.0
 11
437.9726064241658
 21
230.7985025058871
 31
0.0
  0
LINE
  5
137
330
1F
100
AcDbEntity
  8
0
  6
Continuous
 62
     7
100
AcDbLine
 10
372.3268551131013
 20
145.2985025058871
 30
0.0
 11
372.3268551131013
 21
212.5985025058871
 31
0.0
  0
LINE
  5
138
330
1F
100
AcDbEntity
  8
0
  6
Continuous
 62
     7
100
AcDbLine
 10
412.8268551131013
 20
213.7985025058871
 30
0.0
 11
463.3268551131013
 21
213.7985025058871
 31
0.0
  0
LINE
  5
139
330
1F
100
AcDbEntity
  8
0
  6
Continuous
 62
     7
100
AcDbLine
 10
463.3268551131013
 20
213.7985025058871
 30
0.0
 11
465.3268551131013
 21
213.7985025058871
 31
0.0
  0
LINE
  5
13A
330
1F
100
AcDbEntity
  8
0
  6
Continuous
 62
     7
100
AcDbLine
 10
467.0464779589292
 20
210.820028367057
 30
0.0
 11
471.7464779589291
 21
202.6793895714832
 31
0.0
  0
LINE
  5
13B
330
1F
100
AcDbEntity
  8
0
  6
Continuous
 62
     7
100
AcDbLine
 10
372.3268551131013
 20
230.5985025058871
 30
0.0
 11
368.8268551131013
 21
230.5985025058871
 31
0.0
  0
LINE
  5
13C
330
1F
100
AcDbEntity
  8
0
  6
Continuous
 62
     7
100
AcDbLine
 10
388.3268551131012
 20
230.7985025058871
 30
0.0
 11
407.8268551131013
 21
230.7985025058871
 31
0.0
  0
LINE
  5
13D
330
1F
100
AcDbEntity
  8
0
  6
Continuous
 62
     7
100
AcDbLine
 10
358.8268551131013
 20
226.0985025058871
 30
0.0
 11
372.3268551131013
 21
212.5985025058871
 31
0.0
  0
LINE
  5
13E
330
1F
100
AcDbEntity
  8
0
  6
Continuous
 62
     2
100
AcDbLine
 10
447.3268551131013
 20
145.2985025058871
 30
0.0
 11
447.3268551131013
 21
213.7985025058871
 31
0.0
  0
LINE
  5
13F
330
1F
100
AcDbEntity
  8
0
  6
Continuous
 62
     7
100
AcDbLine
 10
465.3268551131013
 20
213.7985025058871
 30
0.0
 11
467.0464779589292
 21
210.820028367057
 31
0.0
  0
LINE
  5
140
330
1F
100
AcDbEntity
  8
0
  6
Continuous
 62
     7
100
AcDbLine
 10
427.3041435505236
 20
236.2985025058871
 30
0.0
 11
438.4493541123005
 21
236.2985025058871
 31
0.0
  0
LINE
  5
141
330
1F
100
AcDbEntity
  8
0
  6
Continuous
 62
     7
100
AcDbLine
 10
463.4268551131013
 20
236.2985025058871
 30
0.0
 11
463.4268551131013
 21
235.7459272350475
 31
0.0
  0
LINE
  5
142
330
1F
100
AcDbEntity
  8
0
  6
Continuous
 62
     7
100
AcDbLine
 10
463.4268551131013
 20
235.7459272350475
 30
0.0
 11
462.6862908209563
 21
236.2985025058871
 31
0.0
  0
LINE
  5
143
330
1F
100
AcDbEntity
  8
0
  6
Continuous
 62
     7
100
AcDbLine
 10
388.3268551131011
 20
236.2985025058871
 30
0.0
 11
407.8268551131013
 21
236.2985025058871
 31
0.0
  0
LINE
  5
144
330
1F
100
AcDbEntity
  8
0
  6
Continuous
 62
     7
100
AcDbLine
 10
360.3268551131013
 20
137.298502505887
 30
0.0
 11
357.8268551131013
 21
137.298502505887
 31
0.0
  0
LINE
  5
145
330
1F
100
AcDbEntity
  8
0
  6
Continuous
 62
     7
100
AcDbLine
 10
475.3268551131011
 20
137.298502505887
 30
0.0
 11
360.3268551131013
 21
137.298502505887
 31
0.0
  0
LINE
  5
146
330
1F
100
AcDbEntity
  8
0
  6
Continuous
 62
     7
100
AcDbLine
 10
357.8268551131013
 20
137.298502505887
 30
0.0
 11
357.8268551131013
 21
143.2985025058871
 31
0.0
  0
LINE
  5
147
330
1F
100
AcDbEntity
  8
0
  6
Continuous
 62
     2
100
AcDbLine
 10
357.8268551131013
 20
143.2985025058871
 30
0.0
 11
360.3268551131013
 21
143.2985025058871
 31
0.0
  0
LINE
  5
148
330
1F
100
AcDbEntity
  8
0
  6
Continuous
 62
     7
100
AcDbLine
 10
360.3268551131013
 20
144.2985025058871
 30
0.0
 11
358.8268551131013
 21
144.2985025058871
 31
0.0
  0
LINE
  5
149
330
1F
100
AcDbEntity
  8
0
  6
Continuous
 62
     7
100
AcDbLine
 10
358.8268551131013
 20
238.5985025058871
 30
0.0
 11
358.8268551131013
 21
226.0985025058871
 31
0.0
  0
LINE
  5
14A
330
1F
100
AcDbEntity
  8
0
  6
Continuous
 62
     7
100
AcDbLine
 10
242.2768551147414
 20
259.6974819914534
 30
0.0
 11
243.6768551147413
 21
259.6974819914534
 31
0.0
  0
LINE
  5
14B
330
1F
100
AcDbEntity
  8
0
  6
Continuous
 62
     7
100
AcDbLine
 10
243.6768551147413
 20
227.6985025058871
 30
0.0
 11
243.6768551147413
 21
259.6974819914534
 31
0.0
  0
LINE
  5
14C
330
1F
100
AcDbEntity
  8
0
  6
Continuous
 62
     7
100
AcDbLine
 10
242.2768551147414
 20
227.6985025058871
 30
0.0
 11
242.2768551147414
 21
259.6974819914534
 31
0.0
  0
LINE
  5
14D
330
1F
100
AcDbEntity
  8
0
  6
Continuous
 62
     7
100
AcDbLine
 10
240.9268551147414
 20
169.7985025058871
 30
0.0
 11
240.9268551147414
 21
197.7985025058871
 31
0.0
  0
LINE
  5
14E
330
1F
100
AcDbEntity
  8
0
  6
Continuous
 62
     2
100
AcDbLine
 10
242.6768551147413
 20
196.7985025058871
 30
0.0
 11
242.6768551147413
 21
169.7985025058871
 31
0.0
  0
LINE
  5
14F
330
1F
100
AcDbEntity
  8
0
  6
Continuous
 62
     2
100
AcDbLine
 10
241.9268551147414
 20
169.7985025058871
 30
0.0
 11
241.9268551147414
 21
196.7985025058871
 31
0.0
  0
LINE
  5
150
330
1F
100
AcDbEntity
  8
0
  6
Continuous
 62
     7
100
AcDbLine
 10
241.9268551147414
 20
196.7985025058871
 30
0.0
 11
242.6768551147413
 21
196.7985025058871
 31
0.0
  0
LINE
  5
151
330
1F
100
AcDbEntity
  8
0
  6
Continuous
 62
     7
100
AcDbLine
 10
243.6768551147413
 20
169.7985025058871
 30
0.0
 11
243.6768551147413
 21
145.2985025058871
 31
0.0
  0
LINE
  5
152
330
1F
100
AcDbEntity
  8
0
  6
Continuous
 62
     2
100
AcDbLine
 10
243.6768551147413
 20
169.7985025058871
 30
0.0
 11
242.6768551147413
 21
169.7985025058871
 31
0.0
  0
LINE
  5
153
330
1F
100
AcDbEntity
  8
0
  6
Continuous
 62
     2
100
AcDbLine
 10
241.9268551147414
 20
169.7985025058871
 30
0.0
 11
242.6768551147413
 21
169.7985025058871
 31
0.0
  0
LINE
  5
154
330
1F
100
AcDbEntity
  8
0
  6
Continuous
 62
     2
100
AcDbLine
 10
241.9268551147414
 20
169.7985025058871
 30
0.0
 11
240.9268551147414
 21
169.7985025058871
 31
0.0
  0
LINE
  5
155
330
1F
100
AcDbEntity
  8
0
  6
Continuous
 62
     2
100
AcDbLine
 10
240.9268551147414
 20
145.2985025058871
 30
0.0
 11
241.9268551147414
 21
145.2985025058871
 31
0.0
  0
LINE
  5
156
330
1F
100
AcDbEntity
  8
0
  6
Continuous
 62
     2
100
AcDbLine
 10
241.9268551147414
 20
144.2985025058871
 30
0.0
 11
241.9268551147414
 21
145.2985025058871
 31
0.0
  0
LINE
  5
157
330
1F
100
AcDbEntity
  8
0
  6
Continuous
 62
     2
100
AcDbLine
 10
242.6768551147413
 20
145.2985025058871
 30
0.0
 11
241.9268551147414
 21
145.2985025058871
 31
0.0
  0
LINE
  5
158
330
1F
100
AcDbEntity
  8
0
  6
Continuous
 62
     2
100
AcDbLine
 10
224.9268551147413
 20
145.2985025058871
 30
0.0
 11
224.9268551147413
 21
144.2985025058871
 31
0.0
  0
LINE
  5
159
330
1F
100
AcDbEntity
  8
0
  6
Continuous
 62
     2
100
AcDbLine
 10
242.6768551147413
 20
145.2985025058871
 30
0.0
 11
242.6768551147413
 21
144.2985025058871
 31
0.0
  0
LINE
  5
15A
330
1F
100
AcDbEntity
  8
0
  6
Continuous
 62
     2
100
AcDbLine
 10
241.9268551147414
 20
145.2985025058871
 30
0.0
 11
241.9268551147414
 21
169.7985025058871
 31
0.0
  0
LINE
  5
15B
330
1F
100
AcDbEntity
  8
0
  6
Continuous
 62
     2
100
AcDbLine
 10
242.6768551147413
 20
169.7985025058871
 30
0.0
 11
242.6768551147413
 21
145.2985025058871
 31
0.0
  0
LINE
  5
15C
330
1F
100
AcDbEntity
  8
0
  6
Continuous
 62
     2
100
AcDbLine
 10
224.9268551147413
 20
145.2985025058871
 30
0.0
 11
224.9268551147413
 21
202.6793895714832
 31
0.0
  0
LINE
  5
15D
330
1F
100
AcDbEntity
  8
0
  6
Continuous
 62
     7
100
AcDbLine
 10
243.6768551147413
 20
195.7985025058871
 30
0.0
 11
243.6768551147413
 21
169.7985025058871
 31
0.0
  0
LINE
  5
15E
330
1F
100
AcDbEntity
  8
0
  6
Continuous
 62
     7
100
AcDbLine
 10
132.9268551147413
 20
242.9272474537378
 30
0.0
 11
133.4268551147413
 21
242.9272474537378
 31
0.0
  0
LINE
  5
15F
330
1F
100
AcDbEntity
  8
0
  6
Continuous
 62
     7
100
AcDbLine
 10
133.4268551147413
 20
242.9272474537378
 30
0.0
 11
138.1768551147413
 21
242.9272474537378
 31
0.0
  0
LINE
  5
160
330
1F
100
AcDbEntity
  8
0
  6
Continuous
 62
     7
100
AcDbLine
 10
208.1768551147413
 20
242.9272474537378
 30
0.0
 11
212.9268551147413
 21
242.9272474537378
 31
0.0
  0
LINE
  5
161
330
1F
100
AcDbEntity
  8
0
  6
Continuous
 62
     7
100
AcDbLine
 10
138.1768551147413
 20
242.9272474537378
 30
0.0
 11
208.1768551147413
 21
242.9272474537378
 31
0.0
  0
LINE
  5
162
330
1F
100
AcDbEntity
  8
0
  6
Continuous
 62
     7
100
AcDbLine
 10
212.9268551147413
 20
242.9272474537378
 30
0.0
 11
213.4268551147413
 21
242.9272474537378
 31
0.0
  0
LINE
  5
163
330
1F
100
AcDbEntity
  8
0
  6
Continuous
 62
     7
100
AcDbLine
 10
213.4268551147413
 20
242.9272474537378
 30
0.0
 11
215.4268551147413
 21
242.9272474537379
 31
0.0
  0
LINE
  5
164
330
1F
100
AcDbEntity
  8
0
  6
Continuous
 62
     7
100
AcDbLine
 10
130.9268551147413
 20
242.9272474537378
 30
0.0
 11
132.9268551147413
 21
242.9272474537378
 31
0.0
  0
LINE
  5
165
330
1F
100
AcDbEntity
  8
0
  6
Continuous
 62
     7
100
AcDbLine
 10
120.7955495562533
 20
242.9272474537378
 30
0.0
 11
130.9268551147413
 21
242.9272474537378
 31
0.0
  0
LINE
  5
166
330
1F
100
AcDbEntity
  8
0
  6
Continuous
 62
     7
100
AcDbLine
 10
215.4268551147413
 20
242.9272474537379
 30
0.0
 11
225.5581606732294
 21
242.9272474537379
 31
0.0
  0
LINE
  5
167
330
1F
100
AcDbEntity
  8
0
  6
Continuous
 62
     7
100
AcDbLine
 10
98.42685511474131
 20
218.7985025058871
 30
0.0
 11
98.85986781663358
 21
218.0486484005148
 31
0.0
  0
LINE
  5
168
330
1F
100
AcDbEntity
  8
0
  6
Continuous
 62
     7
100
AcDbLine
 10
215.4268551147413
 20
236.2985025058871
 30
0.0
 11
215.4268551147413
 21
238.5985025058871
 31
0.0
  0
LINE
  5
169
330
1F
100
AcDbEntity
  8
0
  6
Continuous
 62
     7
100
AcDbLine
 10
98.42685511474131
 20
218.7985025058871
 30
0.0
 11
98.42685511474131
 21
219.4683754869649
 31
0.0
  0
LINE
  5
16A
330
1F
100
AcDbEntity
  8
0
  6
Continuous
 62
     7
100
AcDbLine
 10
98.42685511474131
 20
228.1286295248092
 30
0.0
 11
98.42685511474131
 21
228.7985025058871
 31
0.0
  0
LINE
  5
16B
330
1F
100
AcDbEntity
  8
0
  6
Continuous
 62
     7
100
AcDbLine
 10
98.42685511474131
 20
223.7985025058871
 30
0.0
 11
98.42685511474131
 21
228.1286295248092
 31
0.0
  0
LINE
  5
16C
330
1F
100
AcDbEntity
  8
0
  6
Continuous
 62
     7
100
AcDbLine
 10
98.42685511474131
 20
219.4683754869649
 30
0.0
 11
98.42685511474131
 21
223.7985025058871
 31
0.0
  0
LINE
  5
16D
330
1F
100
AcDbEntity
  8
0
  6
Continuous
 62
     7
100
AcDbLine
 10
98.42685511474131
 20
228.7985025058871
 30
0.0
 11
98.85986781663358
 21
229.5483566112593
 31
0.0
  0
LINE
  5
16E
330
1F
100
AcDbEntity
  8
0
  6
Continuous
 62
     7
100
AcDbLine
 10
104.0768551147413
 20
227.6985025058871
 30
0.0
 11
104.0768551147413
 21
259.6974819914534
 31
0.0
  0
LINE
  5
16F
330
1F
100
AcDbEntity
  8
0
  6
Continuous
 62
     7
100
AcDbLine
 10
102.6768551147413
 20
227.6985025058871
 30
0.0
 11
102.6768551147413
 21
259.6974819914534
 31
0.0
  0
LINE
  5
170
330
1F
100
AcDbEntity
  8
0
  6
Continuous
 62
     7
100
AcDbLine
 10
102.6768551147413
 20
219.8200283670569
 30
0.0
 11
102.6768551147413
 21
219.8985025058871
 31
0.0
  0
LINE
  5
171
330
1F
100
AcDbEntity
  8
0
  6
Continuous
 62
     7
100
AcDbLine
 10
104.0768551147413
 20
219.8200283670569
 30
0.0
 11
104.0768551147413
 21
219.8985025058871
 31
0.0
  0
LINE
  5
172
330
1F
100
AcDbEntity
  8
0
  6
Continuous
 62
     7
100
AcDbLine
 10
104.0768551147413
 20
222.6198966590605
 30
0.0
 11
104.0768551147413
 21
227.6985025058871
 31
0.0
  0
LINE
  5
173
330
1F
100
AcDbEntity
  8
0
  6
Continuous
 62
     7
100
AcDbLine
 10
102.6768551147413
 20
222.6198966590605
 30
0.0
 11
102.6768551147413
 21
227.6985025058871
 31
0.0
  0
LINE
  5
174
330
1F
100
AcDbEntity
  8
0
  6
Continuous
 62
     7
100
AcDbLine
 10
102.6768551147413
 20
219.8985025058871
 30
0.0
 11
102.6768551147413
 21
222.6198966590605
 31
0.0
  0
LINE
  5
175
330
1F
100
AcDbEntity
  8
0
  6
Continuous
 62
     7
100
AcDbLine
 10
104.0768551147413
 20
222.6198966590605
 30
0.0
 11
102.6768551147413
 21
222.6198966590605
 31
0.0
  0
LINE
  5
176
330
1F
100
AcDbEntity
  8
0
  6
Continuous
 62
     7
100
AcDbLine
 10
104.0768551147413
 20
219.8985025058871
 30
0.0
 11
104.0768551147413
 21
222.6198966590605
 31
0.0
  0
LINE
  5
177
330
1F
100
AcDbEntity
  8
0
  6
Continuous
 62
     7
100
AcDbLine
 10
98.85986781663358
 20
226.6379566787872
 30
0.0
 11
101.4268551147413
 21
226.6379566787873
 31
0.0
  0
LINE
  5
178
330
1F
100
AcDbEntity
  8
0
  6
Continuous
 62
     7
100
AcDbLine
 10
101.4268551147413
 20
220.9590483329869
 30
0.0
 11
98.85986781663358
 21
220.9590483329869
 31
0.0
  0
LINE
  5
179
330
1F
100
AcDbEntity
  8
0
  6
Continuous
 62
     7
100
AcDbLine
 10
98.85986781663358
 20
226.7089024383592
 30
0.0
 11
98.85986781663358
 21
226.6379566787872
 31
0.0
  0
LINE
  5
17A
330
1F
100
AcDbEntity
  8
0
  6
Continuous
 62
     7
100
AcDbLine
 10
98.85986781663358
 20
220.888102573415
 30
0.0
 11
101.4268551147413
 21
220.888102573415
 31
0.0
  0
LINE
  5
17B
330
1F
100
AcDbEntity
  8
0
  6
Continuous
 62
     7
100
AcDbLine
 10
104.0768551147413
 20
219.8985025058871
 30
0.0
 11
105.4268551147412
 21
219.8985025058871
 31
0.0
  0
LINE
  5
17C
330
1F
100
AcDbEntity
  8
0
  6
Continuous
 62
     7
100
AcDbLine
 10
98.85986781663358
 20
220.9590483329869
 30
0.0
 11
98.85986781663358
 21
220.888102573415
 31
0.0
  0
LINE
  5
17D
330
1F
100
AcDbEntity
  8
0
  6
Continuous
 62
     7
100
AcDbLine
 10
105.4268551147412
 20
219.8985025058871
 30
0.0
 11
105.4268551147413
 21
227.6985025058871
 31
0.0
  0
LINE
  5
17E
330
1F
100
AcDbEntity
  8
0
  6
Continuous
 62
     7
100
AcDbLine
 10
98.85986781663358
 20
229.5483566112593
 30
0.0
 11
101.4268551147413
 21
229.5483566112593
 31
0.0
  0
LINE
  5
17F
330
1F
100
AcDbEntity
  8
0
  6
Continuous
 62
     7
100
AcDbLine
 10
101.4268551147413
 20
218.0486484005148
 30
0.0
 11
98.85986781663358
 21
218.0486484005148
 31
0.0
  0
LINE
  5
180
330
1F
100
AcDbEntity
  8
0
  6
Continuous
 62
     7
100
AcDbLine
 10
101.4268551147413
 20
226.7089024383592
 30
0.0
 11
98.85986781663358
 21
226.7089024383592
 31
0.0
  0
LINE
  5
181
330
1F
100
AcDbEntity
  8
0
  6
Continuous
 62
     7
100
AcDbLine
 10
104.0768551147413
 20
227.6985025058871
 30
0.0
 11
105.4268551147413
 21
227.6985025058871
 31
0.0
  0
LINE
  5
182
330
1F
100
AcDbEntity
  8
0
  6
Continuous
 62
     2
100
AcDbLine
 10
137.9268551147413
 20
238.5985025058871
 30
0.0
 11
130.9268551147413
 21
238.5985025058871
 31
0.0
  0
LINE
  5
183
330
1F
100
AcDbEntity
  8
0
  6
Continuous
 62
     7
100
AcDbLine
 10
130.9268551147413
 20
236.2985025058871
 30
0.0
 11
130.9268551147413
 21
238.5985025058871
 31
0.0
  0
LINE
  5
184
330
1F
100
AcDbEntity
  8
0
  6
Continuous
 62
     2
100
AcDbLine
 10
208.4268551147413
 20
242.5562266305468
 30
0.0
 11
213.4268551147413
 21
242.5562266305468
 31
0.0
  0
LINE
  5
185
330
1F
100
AcDbEntity
  8
0
  6
Continuous
 62
     2
100
AcDbLine
 10
132.9268551147413
 20
242.5562266305468
 30
0.0
 11
137.9268551147413
 21
242.5562266305468
 31
0.0
  0
LINE
  5
186
330
1F
100
AcDbEntity
  8
0
  6
Continuous
 62
     7
100
AcDbLine
 10
137.9268551147413
 20
236.2985025058871
 30
0.0
 11
137.9268551147413
 21
238.5985025058871
 31
0.0
  0
LINE
  5
187
330
1F
100
AcDbEntity
  8
0
  6
Continuous
 62
     7
100
AcDbLine
 10
208.4268551147413
 20
236.2985025058871
 30
0.0
 11
208.4268551147413
 21
238.5985025058871
 31
0.0
  0
LINE
  5
188
330
1F
100
AcDbEntity
  8
0
  6
Continuous
 62
     7
100
AcDbLine
 10
137.9268551147413
 20
238.5985025058871
 30
0.0
 11
137.9268551147413
 21
242.5562266305468
 31
0.0
  0
LINE
  5
189
330
1F
100
AcDbEntity
  8
0
  6
Continuous
 62
     7
100
AcDbLine
 10
121.4268551147412
 20
236.2985025058871
 30
0.0
 11
137.9268551147413
 21
236.2985025058871
 31
0.0
  0
LINE
  5
18A
330
1F
100
AcDbEntity
  8
0
  6
Continuous
 62
     7
100
AcDbLine
 10
121.4268551147412
 20
230.7985025058871
 30
0.0
 11
224.9268551147414
 21
230.7985025058871
 31
0.0
  0
LINE
  5
18B
330
1F
100
AcDbEntity
  8
0
  6
Continuous
 62
     7
100
AcDbLine
 10
112.0768551147413
 20
202.6793895714833
 30
0.0
 11
234.2768551147414
 21
202.6793895714833
 31
0.0
  0
LINE
  5
18C
330
1F
100
AcDbEntity
  8
0
  6
Continuous
 62
     7
100
AcDbLine
 10
121.1768551147413
 20
244.308553012226
 30
0.0
 11
225.1768551147413
 21
244.308553012226
 31
0.0
  0
LINE
  5
18D
330
1F
100
AcDbEntity
  8
0
  6
Continuous
 62
     7
100
AcDbLine
 10
105.3268551147412
 20
230.7985025058871
 30
0.0
 11
105.4268551147412
 21
230.7985025058871
 31
0.0
  0
LINE
  5
18E
330
1F
100
AcDbEntity
  8
0
  6
Continuous
 62
     7
100
AcDbLine
 10
105.4268551147412
 20
230.7985025058871
 30
0.0
 11
121.4268551147412
 21
230.7985025058871
 31
0.0
  0
LINE
  5
18F
330
1F
100
AcDbEntity
  8
0
  6
Continuous
 62
     7
100
AcDbLine
 10
105.4268551147412
 20
169.7985025058871
 30
0.0
 11
105.4268551147412
 21
197.7985025058871
 31
0.0
  0
LINE
  5
190
330
1F
100
AcDbEntity
  8
0
  6
Continuous
 62
     7
100
AcDbLine
 10
105.4268551147412
 20
197.7985025058871
 30
0.0
 11
105.4268551147412
 21
205.0664968411314
 31
0.0
  0
LINE
  5
191
330
1F
100
AcDbEntity
  8
0
  6
Continuous
 62
     7
100
AcDbLine
 10
105.4268551147412
 20
215.9686193222877
 30
0.0
 11
105.4268551147412
 21
219.8985025058871
 31
0.0
  0
LINE
  5
192
330
1F
100
AcDbEntity
  8
0
  6
Continuous
 62
     7
100
AcDbLine
 10
105.4268551147413
 20
227.6985025058871
 30
0.0
 11
105.4268551147412
 21
230.7985025058871
 31
0.0
  0
LINE
  5
193
330
1F
100
AcDbEntity
  8
0
  6
Continuous
 62
     2
100
AcDbLine
 10
104.4268551147412
 20
196.7985025058871
 30
0.0
 11
104.4268551147412
 21
169.7985025058871
 31
0.0
  0
LINE
  5
194
330
1F
100
AcDbEntity
  8
0
  6
Continuous
 62
     2
100
AcDbLine
 10
121.4268551147413
 20
202.6793895714832
 30
0.0
 11
121.4268551147413
 21
145.2985025058871
 31
0.0
  0
LINE
  5
195
330
1F
100
AcDbEntity
  8
0
  6
Continuous
 62
     2
100
AcDbLine
 10
121.4268551147413
 20
212.8918251367815
 30
0.0
 11
121.4268551147412
 21
230.7985025058871
 31
0.0
  0
LINE
  5
196
330
1F
100
AcDbEntity
  8
0
  6
Continuous
 62
     2
100
AcDbLine
 10
112.0768551147413
 20
211.6793895714831
 30
0.0
 11
112.0768551147413
 21
202.6793895714833
 31
0.0
  0
LINE
  5
197
330
1F
100
AcDbEntity
  8
0
  6
Continuous
 62
     7
100
AcDbLine
 10
140.1765312089088
 20
211.6793895714832
 30
0.0
 11
112.0768551147413
 21
211.6793895714831
 31
0.0
  0
LINE
  5
198
330
1F
100
AcDbEntity
  8
0
  6
Continuous
 62
     7
100
AcDbLine
 10
140.1765312089088
 20
212.8918251367815
 30
0.0
 11
112.0768551147413
 21
212.8918251367813
 31
0.0
  0
LINE
  5
199
330
1F
100
AcDbEntity
  8
0
  6
Continuous
 62
     2
100
AcDbLine
 10
103.6768551147413
 20
169.7985025058871
 30
0.0
 11
103.6768551147413
 21
196.7985025058871
 31
0.0
  0
LINE
  5
19A
330
1F
100
AcDbEntity
  8
0
  6
Continuous
 62
     7
100
AcDbLine
 10
102.6768551147413
 20
195.7985025058871
 30
0.0
 11
102.6768551147413
 21
193.4456092870736
 31
0.0
  0
LINE
  5
19B
330
1F
100
AcDbEntity
  8
0
  6
Continuous
 62
     7
100
AcDbLine
 10
101.6768551147413
 20
146.858502505887
 30
0.0
 11
101.6768551147413
 21
144.5585025058871
 31
0.0
  0
LINE
  5
19C
330
1F
100
AcDbEntity
  8
0
  6
Continuous
 62
     7
100
AcDbLine
 10
102.6768551147413
 20
193.4456092870736
 30
0.0
 11
102.6768551147413
 21
169.7985025058871
 31
0.0
  0
LINE
  5
19D
330
1F
100
AcDbEntity
  8
0
  6
Continuous
 62
     7
100
AcDbLine
 10
101.6768551147413
 20
195.038502505887
 30
0.0
 11
101.6768551147413
 21
192.7385025058871
 31
0.0
  0
LINE
  5
19E
330
1F
100
AcDbEntity
  8
0
  6
Continuous
 62
     2
100
AcDbLine
 10
100.6768551147413
 20
195.038502505887
 30
0.0
 11
100.6768551147413
 21
169.7985025058871
 31
0.0
  0
LINE
  5
19F
330
1F
100
AcDbEntity
  8
0
  6
Continuous
 62
     2
100
AcDbLine
 10
224.9268551147413
 20
145.2985025058871
 30
0.0
 11
221.1768551147413
 21
145.2985025058871
 31
0.0
  0
LINE
  5
1A0
330
1F
100
AcDbEntity
  8
0
  6
Continuous
 62
     2
100
AcDbLine
 10
240.9268551147414
 20
145.2985025058871
 30
0.0
 11
224.9268551147413
 21
145.2985025058871
 31
0.0
  0
LINE
  5
1A1
330
1F
100
AcDbEntity
  8
0
  6
Continuous
 62
     2
100
AcDbLine
 10
243.6768551147413
 20
145.2985025058871
 30
0.0
 11
242.6768551147413
 21
145.2985025058871
 31
0.0
  0
LINE
  5
1A2
330
1F
100
AcDbEntity
  8
0
  6
Continuous
 62
     7
100
AcDbLine
 10
101.6768551147413
 20
192.7385025058871
 30
0.0
 11
101.6768551147413
 21
146.858502505887
 31
0.0
  0
LINE
  5
1A3
330
1F
100
AcDbEntity
  8
0
  6
Continuous
 62
     7
100
AcDbLine
 10
99.67685511474131
 20
194.038502505887
 30
0.0
 11
99.67685511474131
 21
145.5585025058871
 31
0.0
  0
LINE
  5
1A4
330
1F
100
AcDbEntity
  8
0
  6
Continuous
 62
     7
100
AcDbLine
 10
155.1768551147413
 20
339.308553012226
 30
0.0
 11
191.1768551147413
 21
339.308553012226
 31
0.0
  0
LINE
  5
1A5
330
1F
100
AcDbEntity
  8
0
  6
Continuous
 62
     7
100
AcDbLine
 10
191.1768551147413
 20
339.308553012226
 30
0.0
 11
191.1768551147413
 21
335.6898585707141
 31
0.0
  0
LINE
  5
1A6
330
1F
100
AcDbEntity
  8
0
  6
Continuous
 62
     7
100
AcDbLine
 10
155.1768551147413
 20
339.308553012226
 30
0.0
 11
155.1768551147413
 21
335.6898585707141
 31
0.0
  0
LINE
  5
1A7
330
1F
100
AcDbEntity
  8
0
  6
Continuous
 62
     7
100
AcDbLine
 10
242.2768551147414
 20
219.8200283670569
 30
0.0
 11
242.2768551147414
 21
219.8985025058871
 31
0.0
  0
LINE
  5
1A8
330
1F
100
AcDbEntity
  8
0
  6
Continuous
 62
     7
100
AcDbLine
 10
243.6768551147413
 20
219.8985025058871
 30
0.0
 11
243.6768551147413
 21
222.6198966590605
 31
0.0
  0
LINE
  5
1A9
330
1F
100
AcDbEntity
  8
0
  6
Continuous
 62
     7
100
AcDbLine
 10
243.6768551147413
 20
222.6198966590605
 30
0.0
 11
243.6768551147413
 21
227.6985025058871
 31
0.0
  0
LINE
  5
1AA
330
1F
100
AcDbEntity
  8
0
  6
Continuous
 62
     7
100
AcDbLine
 10
242.2768551147414
 20
222.6198966590605
 30
0.0
 11
243.6768551147413
 21
222.6198966590605
 31
0.0
  0
LINE
  5
1AB
330
1F
100
AcDbEntity
  8
0
  6
Continuous
 62
     7
100
AcDbLine
 10
243.6768551147413
 20
219.8200283670569
 30
0.0
 11
243.6768551147413
 21
219.8985025058871
 31
0.0
  0
LINE
  5
1AC
330
1F
100
AcDbEntity
  8
0
  6
Continuous
 62
     7
100
AcDbLine
 10
242.2768551147414
 20
219.8985025058871
 30
0.0
 11
242.2768551147414
 21
222.6198966590605
 31
0.0
  0
LINE
  5
1AD
330
1F
100
AcDbEntity
  8
0
  6
Continuous
 62
     7
100
AcDbLine
 10
242.2768551147414
 20
222.6198966590605
 30
0.0
 11
242.2768551147414
 21
227.6985025058871
 31
0.0
  0
LINE
  5
1AE
330
1F
100
AcDbEntity
  8
0
  6
Continuous
 62
     2
100
AcDbLine
 10
234.2768551147414
 20
202.6793895714833
 30
0.0
 11
234.2768551147414
 21
211.6793895714832
 31
0.0
  0
LINE
  5
1AF
330
1F
100
AcDbEntity
  8
0
  6
Continuous
 62
     2
100
AcDbLine
 10
224.9268551147413
 20
212.8918251367815
 30
0.0
 11
224.9268551147414
 21
230.7985025058871
 31
0.0
  0
LINE
  5
1B0
330
1F
100
AcDbEntity
  8
0
  6
Continuous
 62
     7
100
AcDbLine
 10
138.1768551147413
 20
237.3181049038034
 30
0.0
 11
138.1768551147413
 21
242.9272474537378
 31
0.0
  0
LINE
  5
1B1
330
1F
100
AcDbEntity
  8
0
  6
Continuous
 62
     7
100
AcDbLine
 10
138.1768551147413
 20
237.3181049038034
 30
0.0
 11
138.1768551147413
 21
236.2985025058871
 31
0.0
  0
LINE
  5
1B2
330
1F
100
AcDbEntity
  8
0
  6
Continuous
 62
     7
100
AcDbLine
 10
130.9268551147413
 20
238.5985025058871
 30
0.0
 11
130.9268551147413
 21
242.9272474537378
 31
0.0
  0
LINE
  5
1B3
330
1F
100
AcDbEntity
  8
0
  6
Continuous
 62
     7
100
AcDbLine
 10
137.9268551147413
 20
238.7985025058871
 30
0.0
 11
138.1768551147413
 21
238.7985025058871
 31
0.0
  0
LINE
  5
1B4
330
1F
100
AcDbEntity
  8
0
  6
Continuous
 62
     7
100
AcDbLine
 10
133.4268551147413
 20
242.6604542180808
 30
0.0
 11
133.4268551147413
 21
242.9272474537378
 31
0.0
  0
LINE
  5
1B5
330
1F
100
AcDbEntity
  8
0
  6
Continuous
 62
     2
100
AcDbLine
 10
132.9268551147413
 20
242.9272474537378
 30
0.0
 11
132.9268551147413
 21
242.5562266305468
 31
0.0
  0
LINE
  5
1B6
330
1F
100
AcDbEntity
  8
0
  6
Continuous
 62
     2
100
AcDbLine
 10
213.4268551147413
 20
242.5562266305468
 30
0.0
 11
213.4268551147413
 21
242.9272474537378
 31
0.0
  0
LINE
  5
1B7
330
1F
100
AcDbEntity
  8
0
  6
Continuous
 62
     7
100
AcDbLine
 10
208.4268551147413
 20
242.5562266305468
 30
0.0
 11
208.4268551147413
 21
238.5985025058871
 31
0.0
  0
LINE
  5
1B8
330
1F
100
AcDbEntity
  8
0
  6
Continuous
 62
     7
100
AcDbLine
 10
215.4268551147413
 20
238.5985025058871
 30
0.0
 11
215.4268551147413
 21
242.9272474537379
 31
0.0
  0
LINE
  5
1B9
330
1F
100
AcDbEntity
  8
0
  6
Continuous
 62
     2
100
AcDbLine
 10
138.1768551147413
 20
237.3181049038034
 30
0.0
 11
208.1768551147413
 21
237.3181049038035
 31
0.0
  0
LINE
  5
1BA
330
1F
100
AcDbEntity
  8
0
  6
Continuous
 62
     7
100
AcDbLine
 10
198.1771790205738
 20
211.2218251367814
 30
0.0
 11
198.1771790205738
 21
210.0093895714832
 31
0.0
  0
LINE
  5
1BB
330
1F
100
AcDbEntity
  8
0
  6
Continuous
 62
     2
100
AcDbLine
 10
192.1771790205738
 20
208.2218251367814
 30
0.0
 11
192.1771790205738
 21
207.0093895714832
 31
0.0
  0
LINE
  5
1BC
330
1F
100
AcDbEntity
  8
0
  6
Continuous
 62
     2
100
AcDbLine
 10
154.1765312089088
 20
208.2218251367814
 30
0.0
 11
154.1765312089088
 21
207.0093895714832
 31
0.0
  0
LINE
  5
1BD
330
1F
100
AcDbEntity
  8
0
  6
Continuous
 62
     7
100
AcDbLine
 10
154.1765312089088
 20
208.2218251367814
 30
0.0
 11
192.1771790205738
 21
208.2218251367814
 31
0.0
  0
LINE
  5
1BE
330
1F
100
AcDbEntity
  8
0
  6
Continuous
 62
     2
100
AcDbLine
 10
140.1765312089088
 20
212.8918251367815
 30
0.0
 11
140.1765312089088
 21
211.6793895714832
 31
0.0
  0
LINE
  5
1BF
330
1F
100
AcDbEntity
  8
0
  6
Continuous
 62
     7
100
AcDbLine
 10
148.1765312089088
 20
211.2218251367814
 30
0.0
 11
148.1765312089088
 21
210.0093895714832
 31
0.0
  0
LINE
  5
1C0
330
1F
100
AcDbEntity
  8
0
  6
Continuous
 62
     7
100
AcDbLine
 10
148.1765312089088
 20
214.5981467105345
 30
0.0
 11
148.1765312089088
 21
214.7411616115039
 31
0.0
  0
LINE
  5
1C1
330
1F
100
AcDbEntity
  8
0
  6
Continuous
 62
     7
100
AcDbLine
 10
148.1765312089088
 20
211.2218251367814
 30
0.0
 11
148.1765312089088
 21
214.5981467105345
 31
0.0
  0
LINE
  5
1C2
330
1F
100
AcDbEntity
  8
0
  6
Continuous
 62
     2
100
AcDbLine
 10
146.9217951477153
 20
213.5287260462057
 30
0.0
 11
146.9217951477153
 21
214.7411616115039
 31
0.0
  0
LINE
  5
1C3
330
1F
100
AcDbEntity
  8
0
  6
Continuous
 62
     7
100
AcDbLine
 10
154.1765312089088
 20
207.0093895714832
 30
0.0
 11
192.1771790205738
 21
207.0093895714832
 31
0.0
  0
LINE
  5
1C4
330
1F
100
AcDbEntity
  8
0
  6
Continuous
 62
     2
100
AcDbLine
 10
199.4319150817672
 20
214.741161611504
 30
0.0
 11
199.4319150817672
 21
213.5287260462058
 31
0.0
  0
LINE
  5
1C5
330
1F
100
AcDbEntity
  8
0
  6
Continuous
 62
     2
100
AcDbLine
 10
206.1771790205738
 20
212.8918251367815
 30
0.0
 11
206.1771790205738
 21
211.6793895714833
 31
0.0
  0
LINE
  5
1C6
330
1F
100
AcDbEntity
  8
0
  6
Continuous
 62
     2
100
AcDbLine
 10
199.4319150817672
 20
213.5287260462058
 30
0.0
 11
198.1771790205738
 21
213.5287260462058
 31
0.0
  0
LINE
  5
1C7
330
1F
100
AcDbEntity
  8
0
  6
Continuous
 62
     7
100
AcDbLine
 10
198.1771790205738
 20
214.5981467105346
 30
0.0
 11
198.1771790205738
 21
214.741161611504
 31
0.0
  0
LINE
  5
1C8
330
1F
100
AcDbEntity
  8
0
  6
Continuous
 62
     7
100
AcDbLine
 10
198.1771790205738
 20
211.2218251367814
 30
0.0
 11
198.1771790205738
 21
214.5981467105346
 31
0.0
  0
LINE
  5
1C9
330
1F
100
AcDbEntity
  8
0
  6
Continuous
 62
     2
100
AcDbLine
 10
198.1771790205738
 20
214.741161611504
 30
0.0
 11
148.1765312089088
 21
214.7411616115039
 31
0.0
  0
LINE
  5
1CA
330
1F
100
AcDbEntity
  8
0
  6
Continuous
 62
     2
100
AcDbLine
 10
148.1765312089087
 20
213.5287260462058
 30
0.0
 11
146.9217951477153
 21
213.5287260462057
 31
0.0
  0
LINE
  5
1CB
330
1F
100
AcDbEntity
  8
0
  6
Continuous
 62
     7
100
AcDbLine
 10
225.5581606732294
 20
335.6898585707141
 30
0.0
 11
191.1768551147413
 21
335.6898585707141
 31
0.0
  0
LINE
  5
1CC
330
1F
100
AcDbEntity
  8
0
  6
Continuous
 62
     7
100
AcDbLine
 10
155.1768551147413
 20
335.6898585707141
 30
0.0
 11
120.7955495562532
 21
335.6898585707141
 31
0.0
  0
LINE
  5
1CD
330
1F
100
AcDbEntity
  8
0
  6
Continuous
 62
     7
100
AcDbLine
 10
191.1768551147413
 20
335.6898585707141
 30
0.0
 11
155.1768551147413
 21
335.6898585707141
 31
0.0
  0
LINE
  5
1CE
330
1F
100
AcDbEntity
  8
0
  6
Continuous
 62
     7
100
AcDbLine
 10
212.9268551147413
 20
242.9272474537378
 30
0.0
 11
212.9268551147413
 21
242.6604542180808
 31
0.0
  0
LINE
  5
1CF
330
1F
100
AcDbEntity
  8
0
  6
Continuous
 62
     7
100
AcDbLine
 10
121.6768551147413
 20
249.308553012226
 30
0.0
 11
224.6768551147413
 21
249.308553012226
 31
0.0
  0
LINE
  5
1D0
330
1F
100
AcDbEntity
  8
0
  6
Continuous
 62
     7
100
AcDbLine
 10
213.1340524524437
 20
242.6604542180808
 30
0.0
 11
208.4268551147413
 21
242.6604542180808
 31
0.0
  0
LINE
  5
1D1
330
1F
100
AcDbEntity
  8
0
  6
Continuous
 62
     7
100
AcDbLine
 10
240.5581606732294
 20
285.6356794777847
 30
0.0
 11
246.1768551147413
 21
285.6356794777847
 31
0.0
  0
LINE
  5
1D2
330
1F
100
AcDbEntity
  8
0
  6
Continuous
 62
     7
100
AcDbLine
 10
240.5581606732294
 20
292.9814265466675
 30
0.0
 11
246.1768551147413
 21
292.9814265466675
 31
0.0
  0
LINE
  5
1D3
330
1F
100
AcDbEntity
  8
0
  6
Continuous
 62
     7
100
AcDbLine
 10
240.5581606732294
 20
293.8085530122261
 30
0.0
 11
246.1768551147413
 21
293.8085530122261
 31
0.0
  0
LINE
  5
1D4
330
1F
100
AcDbEntity
  8
0
  6
Continuous
 62
     7
100
AcDbLine
 10
246.1768551147413
 20
292.9814265466675
 30
0.0
 11
246.1768551147413
 21
285.6356794777847
 31
0.0
  0
LINE
  5
1D5
330
1F
100
AcDbEntity
  8
0
  6
Continuous
 62
     7
100
AcDbLine
 10
240.5581606732294
 20
284.8085530122261
 30
0.0
 11
246.1768551147413
 21
284.8085530122261
 31
0.0
  0
LINE
  5
1D6
330
1F
100
AcDbEntity
  8
0
  6
Continuous
 62
     7
100
AcDbLine
 10
234.1768551147413
 20
258.808553012226
 30
0.0
 11
234.1768551147413
 21
319.808553012226
 31
0.0
  0
LINE
  5
1D7
330
1F
100
AcDbEntity
  8
0
  6
Continuous
 62
     7
100
AcDbLine
 10
224.6768551147413
 20
329.308553012226
 30
0.0
 11
121.6768551147414
 21
329.308553012226
 31
0.0
  0
LINE
  5
1D8
330
1F
100
AcDbEntity
  8
0
  6
Continuous
 62
     7
100
AcDbLine
 10
243.6768551147413
 20
259.6974819914534
 30
0.0
 11
243.6768551147413
 21
259.798502505887
 31
0.0
  0
LINE
  5
1D9
330
1F
100
AcDbEntity
  8
0
  6
Continuous
 62
     7
100
AcDbLine
 10
242.2768551147414
 20
259.798502505887
 30
0.0
 11
243.6768551147413
 21
259.798502505887
 31
0.0
  0
LINE
  5
1DA
330
1F
100
AcDbEntity
  8
0
  6
Continuous
 62
     7
100
AcDbLine
 10
246.1768551147413
 20
293.8085530122261
 30
0.0
 11
246.1768551147413
 21
292.9814265466675
 31
0.0
  0
LINE
  5
1DB
330
1F
100
AcDbEntity
  8
0
  6
Continuous
 62
     7
100
AcDbLine
 10
246.1768551147413
 20
285.6356794777847
 30
0.0
 11
246.1768551147413
 21
284.8085530122261
 31
0.0
  0
LINE
  5
1DC
330
1F
100
AcDbEntity
  8
0
  6
Continuous
 62
     7
100
AcDbLine
 10
242.2768551147414
 20
259.6974819914534
 30
0.0
 11
242.2768551147414
 21
259.798502505887
 31
0.0
  0
LINE
  5
1DD
330
1F
100
AcDbEntity
  8
0
  6
Continuous
 62
     7
100
AcDbLine
 10
240.5581606732294
 20
284.8085530122261
 30
0.0
 11
240.5581606732294
 21
285.6356794777847
 31
0.0
  0
LINE
  5
1DE
330
1F
100
AcDbEntity
  8
0
  6
Continuous
 62
     7
100
AcDbLine
 10
240.5581606732294
 20
285.6356794777847
 30
0.0
 11
240.5581606732294
 21
292.9814265466675
 31
0.0
  0
LINE
  5
1DF
330
1F
100
AcDbEntity
  8
0
  6
Continuous
 62
     7
100
AcDbLine
 10
240.5581606732294
 20
292.9814265466675
 30
0.0
 11
240.5581606732294
 21
293.8085530122261
 31
0.0
  0
LINE
  5
1E0
330
1F
100
AcDbEntity
  8
0
  6
Continuous
 62
     7
100
AcDbLine
 10
240.5581606732294
 20
293.8085530122261
 30
0.0
 11
240.5581606732294
 21
320.6898585707141
 31
0.0
  0
LINE
  5
1E1
330
1F
100
AcDbEntity
  8
0
  6
Continuous
 62
     7
100
AcDbLine
 10
240.5581606732294
 20
257.9272474537378
 30
0.0
 11
240.5581606732294
 21
284.8085530122261
 31
0.0
  0
LINE
  5
1E2
330
1F
100
AcDbEntity
  8
0
  6
Continuous
 62
     7
100
AcDbLine
 10
239.1768551147413
 20
258.308553012226
 30
0.0
 11
239.1768551147413
 21
320.308553012226
 31
0.0
  0
LINE
  5
1E3
330
1F
100
AcDbEntity
  8
0
  6
Continuous
 62
     7
100
AcDbLine
 10
225.1768551147413
 20
334.308553012226
 30
0.0
 11
121.1768551147414
 21
334.308553012226
 31
0.0
  0
LINE
  5
1E4
330
1F
100
AcDbEntity
  8
0
  6
Continuous
 62
     7
100
AcDbLine
 10
206.1771790205738
 20
212.8918251367815
 30
0.0
 11
234.2768551147414
 21
212.8918251367814
 31
0.0
  0
LINE
  5
1E5
330
1F
100
AcDbEntity
  8
0
  6
Continuous
 62
     7
100
AcDbLine
 10
208.1768551147413
 20
237.3181049038035
 30
0.0
 11
208.1768551147413
 21
236.2985025058871
 31
0.0
  0
LINE
  5
1E6
330
1F
100
AcDbEntity
  8
0
  6
Continuous
 62
     7
100
AcDbLine
 10
206.1771790205738
 20
211.6793895714833
 30
0.0
 11
234.2768551147414
 21
211.6793895714832
 31
0.0
  0
LINE
  5
1E7
330
1F
100
AcDbEntity
  8
0
  6
Continuous
 62
     7
100
AcDbLine
 10
247.9268551151901
 20
228.7985025061461
 30
0.0
 11
247.4938424128492
 21
229.5483566112593
 31
0.0
  0
LINE
  5
1E8
330
1F
100
AcDbEntity
  8
0
  6
Continuous
 62
     7
100
AcDbLine
 10
247.9268551151901
 20
218.798502505628
 30
0.0
 11
247.4938424128492
 21
218.0486484005148
 31
0.0
  0
LINE
  5
1E9
330
1F
100
AcDbEntity
  8
0
  6
Continuous
 62
     7
100
AcDbLine
 10
247.4938424128492
 20
226.7089024383592
 30
0.0
 11
244.9268551147413
 21
226.7089024383592
 31
0.0
  0
LINE
  5
1EA
330
1F
100
AcDbEntity
  8
0
  6
Continuous
 62
     7
100
AcDbLine
 10
247.4938424128492
 20
226.6379566787872
 30
0.0
 11
247.4938424128492
 21
226.7089024383592
 31
0.0
  0
LINE
  5
1EB
330
1F
100
AcDbEntity
  8
0
  6
Continuous
 62
     7
100
AcDbLine
 10
244.9268551147413
 20
226.6379566787873
 30
0.0
 11
247.4938424128492
 21
226.6379566787872
 31
0.0
  0
LINE
  5
1EC
330
1F
100
AcDbEntity
  8
0
  6
Continuous
 62
     7
100
AcDbLine
 10
244.9268551147413
 20
229.5483566112593
 30
0.0
 11
247.4938424128492
 21
229.5483566112593
 31
0.0
  0
LINE
  5
1ED
330
1F
100
AcDbEntity
  8
0
  6
Continuous
 62
     7
100
AcDbLine
 10
247.4938424128492
 20
220.9590483329869
 30
0.0
 11
244.9268551147413
 21
220.9590483329869
 31
0.0
  0
LINE
  5
1EE
330
1F
100
AcDbEntity
  8
0
  6
Continuous
 62
     7
100
AcDbLine
 10
247.9268551147413
 20
219.4683754869649
 30
0.0
 11
247.9268551151901
 21
218.798502505628
 31
0.0
  0
LINE
  5
1EF
330
1F
100
AcDbEntity
  8
0
  6
Continuous
 62
     7
100
AcDbLine
 10
247.4938424128492
 20
218.0486484005148
 30
0.0
 11
244.9268551147413
 21
218.0486484005148
 31
0.0
  0
LINE
  5
1F0
330
1F
100
AcDbEntity
  8
0
  6
Continuous
 62
     7
100
AcDbLine
 10
244.9268551147413
 20
220.888102573415
 30
0.0
 11
247.4938424128492
 21
220.888102573415
 31
0.0
  0
LINE
  5
1F1
330
1F
100
AcDbEntity
  8
0
  6
Continuous
 62
     7
100
AcDbLine
 10
247.4938424128492
 20
220.888102573415
 30
0.0
 11
247.4938424128492
 21
220.9590483329869
 31
0.0
  0
LINE
  5
1F2
330
1F
100
AcDbEntity
  8
0
  6
Continuous
 62
     7
100
AcDbLine
 10
247.9268551147413
 20
223.7985025058871
 30
0.0
 11
247.9268551147413
 21
219.4683754869649
 31
0.0
  0
LINE
  5
1F3
330
1F
100
AcDbEntity
  8
0
  6
Continuous
 62
     7
100
AcDbLine
 10
247.9268551147413
 20
228.1286295248092
 30
0.0
 11
247.9268551147413
 21
223.7985025058871
 31
0.0
  0
LINE
  5
1F4
330
1F
100
AcDbEntity
  8
0
  6
Continuous
 62
     7
100
AcDbLine
 10
247.9268551151901
 20
228.7985025061461
 30
0.0
 11
247.9268551147413
 21
228.1286295248092
 31
0.0
  0
LINE
  5
1F5
330
1F
100
AcDbEntity
  8
0
  6
Continuous
 62
     7
100
AcDbLine
 10
244.9268551147413
 20
227.6985025058871
 30
0.0
 11
244.9268551147413
 21
229.5483566112593
 31
0.0
  0
LINE
  5
1F6
330
1F
100
AcDbEntity
  8
0
  6
Continuous
 62
     7
100
AcDbLine
 10
244.9268551147413
 20
227.6985025058871
 30
0.0
 11
243.6768551147413
 21
227.6985025058871
 31
0.0
  0
LINE
  5
1F7
330
1F
100
AcDbEntity
  8
0
  6
Continuous
 62
     7
100
AcDbLine
 10
244.9268551147413
 20
226.6379566787873
 30
0.0
 11
244.9268551147413
 21
226.7089024383592
 31
0.0
  0
LINE
  5
1F8
330
1F
100
AcDbEntity
  8
0
  6
Continuous
 62
     7
100
AcDbLine
 10
244.9268551147413
 20
226.7089024383592
 30
0.0
 11
244.9268551147413
 21
227.6985025058871
 31
0.0
  0
LINE
  5
1F9
330
1F
100
AcDbEntity
  8
0
  6
Continuous
 62
     7
100
AcDbLine
 10
244.9268551147413
 20
220.888102573415
 30
0.0
 11
244.9268551147413
 21
220.9590483329869
 31
0.0
  0
LINE
  5
1FA
330
1F
100
AcDbEntity
  8
0
  6
Continuous
 62
     7
100
AcDbLine
 10
244.9268551147413
 20
220.9590483329869
 30
0.0
 11
244.9268551147413
 21
226.6379566787873
 31
0.0
  0
LINE
  5
1FB
330
1F
100
AcDbEntity
  8
0
  6
Continuous
 62
     7
100
AcDbLine
 10
242.2768551147414
 20
219.8985025058871
 30
0.0
 11
240.9268551147414
 21
219.8985025058871
 31
0.0
  0
LINE
  5
1FC
330
1F
100
AcDbEntity
  8
0
  6
Continuous
 62
     7
100
AcDbLine
 10
244.9268551147413
 20
218.0486484005148
 30
0.0
 11
244.9268551147413
 21
219.8985025058871
 31
0.0
  0
LINE
  5
1FD
330
1F
100
AcDbEntity
  8
0
  6
Continuous
 62
     7
100
AcDbLine
 10
242.2768551147414
 20
227.6985025058871
 30
0.0
 11
240.9268551147414
 21
227.6985025058871
 31
0.0
  0
LINE
  5
1FE
330
1F
100
AcDbEntity
  8
0
  6
Continuous
 62
     7
100
AcDbLine
 10
243.6768551147413
 20
219.8200283670569
 30
0.0
 11
243.6768551147413
 21
210.820028367057
 31
0.0
  0
LINE
  5
1FF
330
1F
100
AcDbEntity
  8
0
  6
Continuous
 62
     7
100
AcDbLine
 10
244.9268551147413
 20
219.8985025058871
 30
0.0
 11
244.9268551147413
 21
220.888102573415
 31
0.0
  0
LINE
  5
200
330
1F
100
AcDbEntity
  8
0
  6
Continuous
 62
     7
100
AcDbLine
 10
244.9268551147413
 20
219.8985025058871
 30
0.0
 11
243.6768551147413
 21
219.8985025058871
 31
0.0
  0
LINE
  5
201
330
1F
100
AcDbEntity
  8
0
  6
Continuous
 62
     7
100
AcDbLine
 10
241.0268551147415
 20
236.2985025058871
 30
0.0
 11
241.0268551147415
 21
230.7985025058871
 31
0.0
  0
LINE
  5
202
330
1F
100
AcDbEntity
  8
0
  6
Continuous
 62
     7
100
AcDbLine
 10
240.9268551147414
 20
230.7985025058871
 30
0.0
 11
241.0268551147415
 21
230.7985025058871
 31
0.0
  0
LINE
  5
203
330
1F
100
AcDbEntity
  8
0
  6
Continuous
 62
     7
100
AcDbLine
 10
240.9268551147414
 20
215.9686193222877
 30
0.0
 11
240.9268551147414
 21
219.8985025058871
 31
0.0
  0
LINE
  5
204
330
1F
100
AcDbEntity
  8
0
  6
Continuous
 62
     7
100
AcDbLine
 10
240.9268551147414
 20
197.7985025058871
 30
0.0
 11
240.9268551147414
 21
205.0664968411314
 31
0.0
  0
LINE
  5
205
330
1F
100
AcDbEntity
  8
0
  6
Continuous
 62
     7
100
AcDbLine
 10
240.9268551147414
 20
227.6985025058871
 30
0.0
 11
240.9268551147414
 21
230.7985025058871
 31
0.0
  0
LINE
  5
206
330
1F
100
AcDbEntity
  8
0
  6
Continuous
 62
     7
100
AcDbLine
 10
224.9268551147414
 20
230.7985025058871
 30
0.0
 11
240.9268551147414
 21
230.7985025058871
 31
0.0
  0
LINE
  5
207
330
1F
100
AcDbEntity
  8
0
  6
Continuous
 62
     2
100
AcDbLine
 10
224.9268551147413
 20
236.2985025058871
 30
0.0
 11
224.9268551147414
 21
230.7985025058871
 31
0.0
  0
LINE
  5
208
330
1F
100
AcDbEntity
  8
0
  6
Continuous
 62
     7
100
AcDbLine
 10
208.4268551147413
 20
236.2985025058871
 30
0.0
 11
224.9268551147413
 21
236.2985025058871
 31
0.0
  0
LINE
  5
209
330
1F
100
AcDbEntity
  8
0
  6
Continuous
 62
     2
100
AcDbLine
 10
208.4268551147413
 20
238.5985025058871
 30
0.0
 11
215.4268551147413
 21
238.5985025058871
 31
0.0
  0
LINE
  5
20A
330
1F
100
AcDbEntity
  8
0
  6
Continuous
 62
     7
100
AcDbLine
 10
240.9268551147414
 20
219.8985025058871
 30
0.0
 11
240.9268551147414
 21
227.6985025058871
 31
0.0
  0
LINE
  5
20B
330
1F
100
AcDbEntity
  8
0
  6
Continuous
 62
     7
100
AcDbLine
 10
224.9268551147413
 20
236.2985025058871
 30
0.0
 11
241.0268551147415
 21
236.2985025058871
 31
0.0
  0
LINE
  5
20C
330
1F
100
AcDbEntity
  8
0
  6
Continuous
 62
     7
100
AcDbLine
 10
100.6768551147413
 20
144.5585025058871
 30
0.0
 11
101.6768551147413
 21
144.5585025058871
 31
0.0
  0
LINE
  5
20D
330
1F
100
AcDbEntity
  8
0
  6
Continuous
 62
     2
100
AcDbLine
 10
100.6768551147413
 20
169.7985025058871
 30
0.0
 11
100.6768551147413
 21
144.5585025058871
 31
0.0
  0
LINE
  5
20E
330
1F
100
AcDbEntity
  8
0
  6
Continuous
 62
     7
100
AcDbLine
 10
102.6768551147413
 20
146.1513957247005
 30
0.0
 11
102.6768551147413
 21
145.2985025058871
 31
0.0
  0
LINE
  5
20F
330
1F
100
AcDbEntity
  8
0
  6
Continuous
 62
     7
100
AcDbLine
 10
102.6768551147413
 20
145.2985025058871
 30
0.0
 11
102.6768551147413
 21
143.2985025058871
 31
0.0
  0
LINE
  5
210
330
1F
100
AcDbEntity
  8
0
  6
Continuous
 62
     2
100
AcDbLine
 10
103.6768551147413
 20
145.2985025058871
 30
0.0
 11
102.6768551147413
 21
145.2985025058871
 31
0.0
  0
LINE
  5
211
330
1F
100
AcDbEntity
  8
0
  6
Continuous
 62
     2
100
AcDbLine
 10
103.6768551147413
 20
169.7985025058871
 30
0.0
 11
102.6768551147413
 21
169.7985025058871
 31
0.0
  0
LINE
  5
212
330
1F
100
AcDbEntity
  8
0
  6
Continuous
 62
     7
100
AcDbLine
 10
102.6768551147413
 20
137.2985025058871
 30
0.0
 11
102.6768551147413
 21
143.2985025058871
 31
0.0
  0
LINE
  5
213
330
1F
100
AcDbEntity
  8
0
  6
Continuous
 62
     7
100
AcDbLine
 10
102.6768551147413
 20
137.2985025058871
 30
0.0
 11
105.1768551147413
 21
137.2985025058871
 31
0.0
  0
LINE
  5
214
330
1F
100
AcDbEntity
  8
0
  6
Continuous
 62
     2
100
AcDbLine
 10
102.6768551147413
 20
143.2985025058871
 30
0.0
 11
105.1768551147413
 21
143.2985025058871
 31
0.0
  0
LINE
  5
215
330
1F
100
AcDbEntity
  8
0
  6
Continuous
 62
     2
100
AcDbLine
 10
104.4268551147412
 20
169.7985025058871
 30
0.0
 11
103.6768551147413
 21
169.7985025058871
 31
0.0
  0
LINE
  5
216
330
1F
100
AcDbEntity
  8
0
  6
Continuous
 62
     2
100
AcDbLine
 10
103.6768551147413
 20
144.2985025058871
 30
0.0
 11
103.6768551147413
 21
145.2985025058871
 31
0.0
  0
LINE
  5
217
330
1F
100
AcDbEntity
  8
0
  6
Continuous
 62
     7
100
AcDbLine
 10
104.4268551147412
 20
144.2985025058871
 30
0.0
 11
103.6768551147413
 21
144.2985025058871
 31
0.0
  0
LINE
  5
218
330
1F
100
AcDbEntity
  8
0
  6
Continuous
 62
     2
100
AcDbLine
 10
104.4268551147412
 20
145.298502505887
 30
0.0
 11
103.6768551147413
 21
145.2985025058871
 31
0.0
  0
LINE
  5
219
330
1F
100
AcDbEntity
  8
0
  6
Continuous
 62
     2
100
AcDbLine
 10
104.4268551147412
 20
145.298502505887
 30
0.0
 11
105.4268551147412
 21
145.2985025058871
 31
0.0
  0
LINE
  5
21A
330
1F
100
AcDbEntity
  8
0
  6
Continuous
 62
     2
100
AcDbLine
 10
104.4268551147412
 20
145.298502505887
 30
0.0
 11
104.4268551147412
 21
144.2985025058871
 31
0.0
  0
LINE
  5
21B
330
1F
100
AcDbEntity
  8
0
  6
Continuous
 62
     7
100
AcDbLine
 10
105.1768551147413
 20
137.2985025058871
 30
0.0
 11
123.6768551147413
 21
137.2985025058871
 31
0.0
  0
LINE
  5
21C
330
1F
100
AcDbEntity
  8
0
  6
Continuous
 62
     2
100
AcDbLine
 10
105.1768551147413
 20
143.2985025058871
 30
0.0
 11
123.6768551147413
 21
143.2985025058871
 31
0.0
  0
LINE
  5
21D
330
1F
100
AcDbEntity
  8
0
  6
Continuous
 62
     7
100
AcDbLine
 10
105.1768551147413
 20
144.2985025058871
 30
0.0
 11
104.4268551147412
 21
144.2985025058871
 31
0.0
  0
LINE
  5
21E
330
1F
100
AcDbEntity
  8
0
  6
Continuous
 62
     7
100
AcDbLine
 10
121.4268551147413
 20
144.2985025058871
 30
0.0
 11
105.1768551147413
 21
144.2985025058871
 31
0.0
  0
LINE
  5
21F
330
1F
100
AcDbEntity
  8
0
  6
Continuous
 62
     2
100
AcDbLine
 10
105.1768551147413
 20
143.2985025058871
 30
0.0
 11
105.1768551147413
 21
144.2985025058871
 31
0.0
  0
LINE
  5
220
330
1F
100
AcDbEntity
  8
0
  6
Continuous
 62
     2
100
AcDbLine
 10
105.1768551147413
 20
137.2985025058871
 30
0.0
 11
105.1768551147413
 21
143.2985025058871
 31
0.0
  0
LINE
  5
221
330
1F
100
AcDbEntity
  8
0
  6
Continuous
 62
     2
100
AcDbLine
 10
104.4268551147412
 20
169.7985025058871
 30
0.0
 11
104.4268551147412
 21
145.298502505887
 31
0.0
  0
LINE
  5
222
330
1F
100
AcDbEntity
  8
0
  6
Continuous
 62
     7
100
AcDbLine
 10
105.4268551147412
 20
145.2985025058871
 30
0.0
 11
105.4268551147412
 21
169.7985025058871
 31
0.0
  0
LINE
  5
223
330
1F
100
AcDbEntity
  8
0
  6
Continuous
 62
     2
100
AcDbLine
 10
121.4268551147413
 20
145.2985025058871
 30
0.0
 11
105.4268551147412
 21
145.2985025058871
 31
0.0
  0
LINE
  5
224
330
1F
100
AcDbEntity
  8
0
  6
Continuous
 62
     2
100
AcDbLine
 10
104.4268551147412
 20
169.7985025058871
 30
0.0
 11
105.4268551147412
 21
169.7985025058871
 31
0.0
  0
LINE
  5
225
330
1F
100
AcDbEntity
  8
0
  6
Continuous
 62
     7
100
AcDbLine
 10
240.9268551147414
 20
145.2985025058871
 30
0.0
 11
240.9268551147414
 21
169.7985025058871
 31
0.0
  0
LINE
  5
226
330
1F
100
AcDbEntity
  8
0
  6
Continuous
 62
     7
100
AcDbLine
 10
126.1768551147413
 20
143.2985025058871
 30
0.0
 11
126.1768551147413
 21
143.5664516983182
 31
0.0
  0
LINE
  5
227
330
1F
100
AcDbEntity
  8
0
  6
Continuous
 62
     7
100
AcDbLine
 10
220.1768551147413
 20
143.5664516983182
 30
0.0
 11
220.1768551147413
 21
143.2985025058871
 31
0.0
  0
LINE
  5
228
330
1F
100
AcDbEntity
  8
0
  6
Continuous
 62
     2
100
AcDbLine
 10
121.4268551147413
 20
144.2985025058871
 30
0.0
 11
121.4268551147413
 21
145.2985025058871
 31
0.0
  0
LINE
  5
229
330
1F
100
AcDbEntity
  8
0
  6
Continuous
 62
     7
100
AcDbLine
 10
123.6768551147413
 20
144.2985025058871
 30
0.0
 11
121.4268551147413
 21
144.2985025058871
 31
0.0
  0
LINE
  5
22A
330
1F
100
AcDbEntity
  8
0
  6
Continuous
 62
     7
100
AcDbLine
 10
126.1768551147413
 20
137.2985025058871
 30
0.0
 11
126.1768551147413
 21
137.7985025058871
 31
0.0
  0
LINE
  5
22B
330
1F
100
AcDbEntity
  8
0
  6
Continuous
 62
     7
100
AcDbLine
 10
126.1768551147413
 20
137.7985025058871
 30
0.0
 11
126.1768551147413
 21
143.2985025058871
 31
0.0
  0
LINE
  5
22C
330
1F
100
AcDbEntity
  8
0
  6
Continuous
 62
     7
100
AcDbLine
 10
123.6768551147413
 20
137.2985025058871
 30
0.0
 11
126.1768551147413
 21
137.2985025058871
 31
0.0
  0
LINE
  5
22D
330
1F
100
AcDbEntity
  8
0
  6
Continuous
 62
     2
100
AcDbLine
 10
125.1768551147413
 20
145.2985025058871
 30
0.0
 11
125.1768551147413
 21
144.2985025058871
 31
0.0
  0
LINE
  5
22E
330
1F
100
AcDbEntity
  8
0
  6
Continuous
 62
     7
100
AcDbLine
 10
125.1768551147413
 20
144.2985025058871
 30
0.0
 11
123.6768551147413
 21
144.2985025058871
 31
0.0
  0
LINE
  5
22F
330
1F
100
AcDbEntity
  8
0
  6
Continuous
 62
     2
100
AcDbLine
 10
123.6768551147413
 20
143.2985025058871
 30
0.0
 11
126.1768551147413
 21
143.2985025058871
 31
0.0
  0
LINE
  5
230
330
1F
100
AcDbEntity
  8
0
  6
Continuous
 62
     2
100
AcDbLine
 10
125.1768551147413
 20
145.2985025058871
 30
0.0
 11
121.4268551147413
 21
145.2985025058871
 31
0.0
  0
LINE
  5
231
330
1F
100
AcDbEntity
  8
0
  6
Continuous
 62
     2
100
AcDbLine
 10
123.6768551147413
 20
137.2985025058871
 30
0.0
 11
123.6768551147413
 21
143.2985025058871
 31
0.0
  0
LINE
  5
232
330
1F
100
AcDbEntity
  8
0
  6
Continuous
 62
     2
100
AcDbLine
 10
123.6768551147413
 20
143.2985025058871
 30
0.0
 11
123.6768551147413
 21
144.2985025058871
 31
0.0
  0
LINE
  5
233
330
1F
100
AcDbEntity
  8
0
  6
Continuous
 62
     7
100
AcDbLine
 10
243.6768551147413
 20
137.2985025058871
 30
0.0
 11
241.1768551147413
 21
137.2985025058871
 31
0.0
  0
LINE
  5
234
330
1F
100
AcDbEntity
  8
0
  6
Continuous
 62
     7
100
AcDbLine
 10
222.6768551147413
 20
137.2985025058871
 30
0.0
 11
220.1768551147413
 21
137.2985025058871
 31
0.0
  0
LINE
  5
235
330
1F
100
AcDbEntity
  8
0
  6
Continuous
 62
     7
100
AcDbLine
 10
241.1768551147413
 20
137.2985025058871
 30
0.0
 11
222.6768551147413
 21
137.2985025058871
 31
0.0
  0
LINE
  5
236
330
1F
100
AcDbEntity
  8
0
  6
Continuous
 62
     2
100
AcDbLine
 10
241.1768551147413
 20
137.2985025058871
 30
0.0
 11
241.1768551147413
 21
143.2985025058871
 31
0.0
  0
LINE
  5
237
330
1F
100
AcDbEntity
  8
0
  6
Continuous
 62
     7
100
AcDbLine
 10
220.1768551147413
 20
137.2985025058871
 30
0.0
 11
220.1768551147413
 21
137.7985025058871
 31
0.0
  0
LINE
  5
238
330
1F
100
AcDbEntity
  8
0
  6
Continuous
 62
     7
100
AcDbLine
 10
220.1768551147413
 20
137.7985025058871
 30
0.0
 11
220.1768551147413
 21
143.2985025058871
 31
0.0
  0
LINE
  5
239
330
1F
100
AcDbEntity
  8
0
  6
Continuous
 62
     2
100
AcDbLine
 10
222.6768551147413
 20
137.2985025058871
 30
0.0
 11
222.6768551147413
 21
143.2985025058871
 31
0.0
  0
LINE
  5
23A
330
1F
100
AcDbEntity
  8
0
  6
Continuous
 62
     7
100
AcDbLine
 10
243.6768551147413
 20
137.2985025058871
 30
0.0
 11
243.6768551147413
 21
143.2985025058871
 31
0.0
  0
LINE
  5
23B
330
1F
100
AcDbEntity
  8
0
  6
Continuous
 62
     2
100
AcDbLine
 10
220.1768551147413
 20
143.2985025058871
 30
0.0
 11
222.6768551147413
 21
143.2985025058871
 31
0.0
  0
LINE
  5
23C
330
1F
100
AcDbEntity
  8
0
  6
Continuous
 62
     7
100
AcDbLine
 10
221.1768551147413
 20
144.2985025058871
 30
0.0
 11
222.6768551147413
 21
144.2985025058871
 31
0.0
  0
LINE
  5
23D
330
1F
100
AcDbEntity
  8
0
  6
Continuous
 62
     7
100
AcDbLine
 10
222.6768551147413
 20
144.2985025058871
 30
0.0
 11
224.9268551147413
 21
144.2985025058871
 31
0.0
  0
LINE
  5
23E
330
1F
100
AcDbEntity
  8
0
  6
Continuous
 62
     7
100
AcDbLine
 10
241.1768551147413
 20
144.2985025058871
 30
0.0
 11
241.9268551147414
 21
144.2985025058871
 31
0.0
  0
LINE
  5
23F
330
1F
100
AcDbEntity
  8
0
  6
Continuous
 62
     7
100
AcDbLine
 10
224.9268551147413
 20
144.2985025058871
 30
0.0
 11
241.1768551147413
 21
144.2985025058871
 31
0.0
  0
LINE
  5
240
330
1F
100
AcDbEntity
  8
0
  6
Continuous
 62
     2
100
AcDbLine
 10
222.6768551147413
 20
143.2985025058871
 30
0.0
 11
222.6768551147413
 21
144.2985025058871
 31
0.0
  0
LINE
  5
241
330
1F
100
AcDbEntity
  8
0
  6
Continuous
 62
     2
100
AcDbLine
 10
241.1768551147413
 20
143.2985025058871
 30
0.0
 11
241.1768551147413
 21
144.2985025058871
 31
0.0
  0
LINE
  5
242
330
1F
100
AcDbEntity
  8
0
  6
Continuous
 62
     2
100
AcDbLine
 10
241.1768551147413
 20
143.2985025058871
 30
0.0
 11
243.6768551147413
 21
143.2985025058871
 31
0.0
  0
LINE
  5
243
330
1F
100
AcDbEntity
  8
0
  6
Continuous
 62
     2
100
AcDbLine
 10
222.6768551147413
 20
143.2985025058871
 30
0.0
 11
241.1768551147413
 21
143.2985025058871
 31
0.0
  0
LINE
  5
244
330
1F
100
AcDbEntity
  8
0
  6
Continuous
 62
     7
100
AcDbLine
 10
241.9268551147414
 20
144.2985025058871
 30
0.0
 11
242.6768551147413
 21
144.2985025058871
 31
0.0
  0
LINE
  5
245
330
1F
100
AcDbEntity
  8
0
  6
Continuous
 62
     7
100
AcDbLine
 10
243.6768551147413
 20
143.2985025058871
 30
0.0
 11
243.6768551147413
 21
145.2985025058871
 31
0.0
  0
LINE
  5
246
330
1F
100
AcDbEntity
  8
0
  6
Continuous
 62
     2
100
AcDbLine
 10
221.1768551147413
 20
144.2985025058871
 30
0.0
 11
221.1768551147413
 21
145.2985025058871
 31
0.0
  0
LINE
  5
247
330
1F
100
AcDbEntity
  8
0
  6
Continuous
 62
     7
100
AcDbLine
 10
220.1768551147413
 20
137.7985025058871
 30
0.0
 11
126.1768551147413
 21
137.7985025058871
 31
0.0
  0
LINE
  5
248
330
1F
100
AcDbEntity
  8
0
  6
Continuous
 62
     2
100
AcDbLine
 10
103.6768551147413
 20
145.2985025058871
 30
0.0
 11
103.6768551147413
 21
169.7985025058871
 31
0.0
  0
LINE
  5
249
330
1F
100
AcDbEntity
  8
0
  6
Continuous
 62
     7
100
AcDbLine
 10
102.6768551147413
 20
169.7985025058871
 30
0.0
 11
102.6768551147413
 21
146.1513957247005
 31
0.0
  0
LINE
  5
24A
330
1F
100
AcDbEntity
  8
0
  6
Continuous
 62
     7
100
AcDbLine
 10
105.7955495562533
 20
293.8085530122259
 30
0.0
 11
105.7955495562533
 21
293.8029244921995
 31
0.0
  0
LINE
  5
24B
330
1F
100
AcDbEntity
  8
0
  6
Continuous
 62
     7
100
AcDbLine
 10
105.7955495562533
 20
293.8029244921995
 30
0.0
 11
105.7955495562533
 21
291.3060514477698
 31
0.0
  0
LINE
  5
24C
330
1F
100
AcDbEntity
  8
0
  6
Continuous
 62
     7
100
AcDbLine
 10
105.7955495562533
 20
320.6898585707141
 30
0.0
 11
105.7955495562533
 21
293.8085530122259
 31
0.0
  0
LINE
  5
24D
330
1F
100
AcDbEntity
  8
0
  6
Continuous
 62
     7
100
AcDbLine
 10
105.7955495562533
 20
284.8085530122259
 30
0.0
 11
105.7955495562533
 21
257.9272474537378
 31
0.0
  0
LINE
  5
24E
330
1F
100
AcDbEntity
  8
0
  6
Continuous
 62
     7
100
AcDbLine
 10
105.7955495562533
 20
284.8141815322524
 30
0.0
 11
105.7955495562533
 21
284.8085530122259
 31
0.0
  0
LINE
  5
24F
330
1F
100
AcDbEntity
  8
0
  6
Continuous
 62
     7
100
AcDbLine
 10
105.7955495562533
 20
291.3060514477698
 30
0.0
 11
105.7955495562533
 21
287.3110545766821
 31
0.0
  0
LINE
  5
250
330
1F
100
AcDbEntity
  8
0
  6
Continuous
 62
     7
100
AcDbLine
 10
105.7955495562533
 20
287.3110545766821
 30
0.0
 11
105.7955495562533
 21
284.8141815322524
 31
0.0
  0
LINE
  5
251
330
1F
100
AcDbEntity
  8
0
  6
Continuous
 62
     7
100
AcDbLine
 10
104.0768551147413
 20
259.7985025058871
 30
0.0
 11
102.6768551147413
 21
259.7985025058871
 31
0.0
  0
LINE
  5
252
330
1F
100
AcDbEntity
  8
0
  6
Continuous
 62
     7
100
AcDbLine
 10
104.0768551147413
 20
259.6974819914534
 30
0.0
 11
104.0768551147413
 21
259.7985025058871
 31
0.0
  0
LINE
  5
253
330
1F
100
AcDbEntity
  8
0
  6
Continuous
 62
     7
100
AcDbLine
 10
107.1768551147413
 20
320.3085530122258
 30
0.0
 11
107.1768551147413
 21
258.308553012226
 31
0.0
  0
LINE
  5
254
330
1F
100
AcDbEntity
  8
0
  6
Continuous
 62
     7
100
AcDbLine
 10
100.1768551147413
 20
291.3060514477698
 30
0.0
 11
100.1768551147413
 21
293.8029244921995
 31
0.0
  0
LINE
  5
255
330
1F
100
AcDbEntity
  8
0
  6
Continuous
 62
     7
100
AcDbLine
 10
100.1768551147413
 20
284.8141815322524
 30
0.0
 11
100.1768551147413
 21
287.3110545766821
 31
0.0
  0
LINE
  5
256
330
1F
100
AcDbEntity
  8
0
  6
Continuous
 62
     7
100
AcDbLine
 10
102.6768551147413
 20
259.6974819914534
 30
0.0
 11
102.6768551147413
 21
259.7985025058871
 31
0.0
  0
LINE
  5
257
330
1F
100
AcDbEntity
  8
0
  6
Continuous
 62
     7
100
AcDbLine
 10
100.1768551147413
 20
287.3110545766821
 30
0.0
 11
100.1768551147413
 21
291.3060514477698
 31
0.0
  0
LINE
  5
258
330
1F
100
AcDbEntity
  8
0
  6
Continuous
 62
     7
100
AcDbLine
 10
112.1768551147413
 20
319.8085530122259
 30
0.0
 11
112.1768551147413
 21
258.808553012226
 31
0.0
  0
LINE
  5
259
330
1F
100
AcDbEntity
  8
0
  6
Continuous
 62
     7
100
AcDbLine
 10
104.0768551147413
 20
259.6974819914534
 30
0.0
 11
102.6768551147413
 21
259.6974819914534
 31
0.0
  0
LINE
  5
25A
330
1F
100
AcDbEntity
  8
0
  6
Continuous
 62
     7
100
AcDbLine
 10
208.1768551147413
 20
237.3181049038035
 30
0.0
 11
208.1768551147413
 21
242.9272474537378
 31
0.0
  0
LINE
  5
25B
330
1F
100
AcDbEntity
  8
0
  6
Continuous
 62
     7
100
AcDbLine
 10
208.4268551147413
 20
242.6604542180808
 30
0.0
 11
208.4268551147413
 21
242.5562266305468
 31
0.0
  0
LINE
  5
25C
330
1F
100
AcDbEntity
  8
0
  6
Continuous
 62
     7
100
AcDbLine
 10
137.9268551147413
 20
242.5562266305468
 30
0.0
 11
137.9268551147413
 21
242.6604542180808
 31
0.0
  0
LINE
  5
25D
330
1F
100
AcDbEntity
  8
0
  6
Continuous
 62
     7
100
AcDbLine
 10
137.9268551147413
 20
242.6604542180808
 30
0.0
 11
133.219657777039
 21
242.6604542180808
 31
0.0
  0
LINE
  5
25E
330
1F
100
AcDbEntity
  8
0
  6
Continuous
 62
     7
100
AcDbLine
 10
101.4268551147413
 20
226.6379566787873
 30
0.0
 11
101.4268551147413
 21
220.9590483329869
 31
0.0
  0
LINE
  5
25F
330
1F
100
AcDbEntity
  8
0
  6
Continuous
 62
     7
100
AcDbLine
 10
100.6768551147413
 20
195.038502505887
 30
0.0
 11
101.6768551147413
 21
195.038502505887
 31
0.0
  0
LINE
  5
260
330
1F
100
AcDbEntity
  8
0
  6
Continuous
 62
     7
100
AcDbLine
 10
101.4268551147413
 20
219.8985025058871
 30
0.0
 11
102.6768551147413
 21
219.8985025058871
 31
0.0
  0
LINE
  5
261
330
1F
100
AcDbEntity
  8
0
  6
Continuous
 62
     7
100
AcDbLine
 10
105.3268551147412
 20
236.2985025058871
 30
0.0
 11
121.4268551147412
 21
236.2985025058871
 31
0.0
  0
LINE
  5
262
330
1F
100
AcDbEntity
  8
0
  6
Continuous
 62
     7
100
AcDbLine
 10
105.3268551147412
 20
236.2985025058871
 30
0.0
 11
105.3268551147412
 21
230.7985025058871
 31
0.0
  0
LINE
  5
263
330
1F
100
AcDbEntity
  8
0
  6
Continuous
 62
     7
100
AcDbLine
 10
101.4268551147413
 20
226.6379566787873
 30
0.0
 11
101.4268551147413
 21
226.7089024383592
 31
0.0
  0
LINE
  5
264
330
1F
100
AcDbEntity
  8
0
  6
Continuous
 62
     7
100
AcDbLine
 10
101.4268551147413
 20
220.888102573415
 30
0.0
 11
101.4268551147413
 21
220.9590483329869
 31
0.0
  0
LINE
  5
265
330
1F
100
AcDbEntity
  8
0
  6
Continuous
 62
     7
100
AcDbLine
 10
101.4268551147413
 20
220.888102573415
 30
0.0
 11
101.4268551147413
 21
219.8985025058871
 31
0.0
  0
LINE
  5
266
330
1F
100
AcDbEntity
  8
0
  6
Continuous
 62
     7
100
AcDbLine
 10
102.6768551147413
 20
210.820028367057
 30
0.0
 11
102.6768551147413
 21
219.8200283670569
 31
0.0
  0
LINE
  5
267
330
1F
100
AcDbEntity
  8
0
  6
Continuous
 62
     7
100
AcDbLine
 10
104.4268551147412
 20
196.7985025058871
 30
0.0
 11
103.6768551147413
 21
196.7985025058871
 31
0.0
  0
LINE
  5
268
330
1F
100
AcDbEntity
  8
0
  6
Continuous
 62
     7
100
AcDbLine
 10
101.4268551147413
 20
229.5483566112593
 30
0.0
 11
101.4268551147413
 21
227.6985025058871
 31
0.0
  0
LINE
  5
269
330
1F
100
AcDbEntity
  8
0
  6
Continuous
 62
     7
100
AcDbLine
 10
101.4268551147413
 20
227.6985025058871
 30
0.0
 11
101.4268551147413
 21
226.7089024383592
 31
0.0
  0
LINE
  5
26A
330
1F
100
AcDbEntity
  8
0
  6
Continuous
 62
     7
100
AcDbLine
 10
101.4268551147413
 20
227.6985025058871
 30
0.0
 11
102.6768551147413
 21
227.6985025058871
 31
0.0
  0
LINE
  5
26B
330
1F
100
AcDbEntity
  8
0
  6
Continuous
 62
     7
100
AcDbLine
 10
101.4268551147413
 20
219.8985025058871
 30
0.0
 11
101.4268551147413
 21
218.0486484005148
 31
0.0
  0
LINE
  5
26C
330
1F
100
AcDbEntity
  8
0
  6
Continuous
 62
     7
100
AcDbLine
 10
148.1765312089088
 20
215.9977308920903
 30
0.0
 11
198.1771790205738
 21
215.9977308920903
 31
0.0
  0
LINE
  5
26D
330
1F
100
AcDbEntity
  8
0
  6
Continuous
 62
     7
100
AcDbLine
 10
148.1765312089088
 20
215.9977308920903
 30
0.0
 11
148.1765312089088
 21
214.7411616115039
 31
0.0
  0
LINE
  5
26E
330
1F
100
AcDbEntity
  8
0
  6
Continuous
 62
     7
100
AcDbLine
 10
198.1771790205738
 20
214.741161611504
 30
0.0
 11
198.1771790205738
 21
215.9977308920903
 31
0.0
  0
LINE
  5
26F
330
1F
100
AcDbEntity
  8
0
  6
Continuous
 62
     2
100
AcDbLine
 10
121.4268551147412
 20
236.2985025058871
 30
0.0
 11
121.4268551147412
 21
230.7985025058871
 31
0.0
  0
LINE
  5
270
330
1F
100
AcDbEntity
  8
0
  6
Continuous
 62
     7
100
AcDbLine
 10
208.1768551147413
 20
238.7985025058871
 30
0.0
 11
208.4268551147413
 21
238.7985025058871
 31
0.0
  0
LINE
  5
271
330
1F
100
AcDbEntity
  8
0
  6
Continuous
 62
     7
100
AcDbLine
 10
137.9268551147413
 20
236.2985025058871
 30
0.0
 11
208.4268551147413
 21
236.2985025058871
 31
0.0
  0
LINE
  5
272
330
1F
100
AcDbEntity
  8
1
  6
DOT_CENTER
 62
     2
100
AcDbLine
 10
100.6768551147413
 20
169.7985025058871
 30
0.0
 11
101.6768551147413
 21
169.7985025058871
 31
0.0
  0
LINE
  5
273
330
1F
100
AcDbEntity
  8
Sichtbare_Kanten_TC_020513_DIN_
  6
Continuous
 62
     7
100
AcDbLine
 10
173.1768551147413
 20
224.1481166989887
 30
0.0
 11
172.0518551147413
 21
225.7016965126748
 31
0.0
  0
LINE
  5
274
330
1F
100
AcDbEntity
  8
Sichtbare_Kanten_TC_020513_DIN_
  6
Continuous
 62
     7
100
AcDbLine
 10
172.0518551147413
 20
225.7016965126748
 30
0.0
 11
172.0518551147413
 21
221.7113376526257
 31
0.0
  0
LINE
  5
275
330
1F
100
AcDbEntity
  8
Sichtbare_Kanten_TC_020513_DIN_
  6
Continuous
 62
     7
100
AcDbLine
 10
171.3018551147413
 20
221.7113376526257
 30
0.0
 11
171.3018551147413
 21
226.8589342068907
 31
0.0
  0
LINE
  5
276
330
1F
100
AcDbEntity
  8
Sichtbare_Kanten_TC_020513_DIN_
  6
Continuous
 62
     7
100
AcDbLine
 10
171.9805839742312
 20
227.0788746077097
 30
0.0
 11
173.1768551147413
 21
225.4268722116297
 31
0.0
  0
LINE
  5
277
330
1F
100
AcDbEntity
  8
Sichtbare_Kanten_TC_020513_DIN_
  6
Continuous
 62
     7
100
AcDbLine
 10
173.1768551147413
 20
225.4268722116297
 30
0.0
 11
174.3731262552504
 21
227.0788746077097
 31
0.0
  0
LINE
  5
278
330
1F
100
AcDbEntity
  8
Sichtbare_Kanten_TC_020513_DIN_
  6
Continuous
 62
     7
100
AcDbLine
 10
175.0518551147414
 20
226.8589342068907
 30
0.0
 11
175.0518551147414
 21
219.9372991910877
 31
0.0
  0
LINE
  5
279
330
1F
100
AcDbEntity
  8
Sichtbare_Kanten_TC_020513_DIN_
  6
Continuous
 62
     7
100
AcDbLine
 10
174.3018551147414
 20
219.9372991910877
 30
0.0
 11
174.3018551147414
 21
225.7016965126748
 31
0.0
  0
LINE
  5
27A
330
1F
100
AcDbEntity
  8
Sichtbare_Kanten_TC_020513_DIN_
  6
Continuous
 62
     7
100
AcDbLine
 10
174.3018551147414
 20
225.7016965126748
 30
0.0
 11
173.1768551147413
 21
224.1481166989887
 31
0.0
  0
LINE
  5
27B
330
1F
100
AcDbEntity
  8
Sichtbare_Kanten_TC_020513_DIN_
  6
Continuous
 62
     7
100
AcDbLine
 10
170.4768551147412
 20
225.9502803607366
 30
0.0
 11
170.4768551147412
 21
221.0625395089666
 31
0.0
  0
LINE
  5
27C
330
1F
100
AcDbEntity
  8
Sichtbare_Kanten_TC_020513_DIN_
  6
Continuous
 62
     7
100
AcDbLine
 10
170.4768551147412
 20
221.0625395089666
 30
0.0
 11
173.3642510347992
 21
219.3967341704707
 31
0.0
  0
LINE
  5
27D
330
1F
100
AcDbEntity
  8
Sichtbare_Kanten_TC_020513_DIN_
  6
Continuous
 62
     7
100
AcDbLine
 10
172.9894591946821
 20
218.7470949809346
 30
0.0
 11
169.9144591946822
 21
220.5211334424726
 31
0.0
  0
LINE
  5
27E
330
1F
100
AcDbEntity
  8
Sichtbare_Kanten_TC_020513_DIN_
  6
Continuous
 62
     7
100
AcDbLine
 10
169.7268551147412
 20
220.8459530372408
 30
0.0
 11
169.7268551147412
 21
225.9502803607366
 31
0.0
  0
LINE
  5
27F
330
1F
100
AcDbEntity
  8
Sichtbare_Kanten_TC_020513_DIN_
  6
Continuous
 62
     7
100
AcDbLine
 10
163.4268551147413
 20
223.3981166989887
 30
0.0
 11
173.1768551147413
 21
229.0231166989887
 31
0.0
  0
LINE
  5
280
330
1F
100
AcDbEntity
  8
Sichtbare_Kanten_TC_020513_DIN_
  6
Continuous
 62
     7
100
AcDbLine
 10
173.1768551147413
 20
229.0231166989887
 30
0.0
 11
182.9268551147414
 21
223.3981166989887
 31
0.0
  0
LINE
  5
281
330
1F
100
AcDbEntity
  8
Sichtbare_Kanten_TC_020513_DIN_
  6
Continuous
 62
     7
100
AcDbLine
 10
182.9268551147414
 20
223.3981166989887
 30
0.0
 11
173.1768551147413
 21
217.7731166989887
 31
0.0
  0
LINE
  5
282
330
1F
100
AcDbEntity
  8
Sichtbare_Kanten_TC_020513_DIN_
  6
Continuous
 62
     7
100
AcDbLine
 10
173.1768551147413
 20
217.7731166989887
 30
0.0
 11
163.4268551147413
 21
223.3981166989887
 31
0.0
  0
LINE
  5
283
330
1F
100
AcDbEntity
  8
Sichtbare_Kanten_TC_020513_DIN_
  6
Continuous
 62
     7
100
AcDbLine
 10
173.1768551147413
 20
228.5901840734177
 30
0.0
 11
164.1772716657312
 21
223.3981166989887
 31
0.0
  0
LINE
  5
284
330
1F
100
AcDbEntity
  8
Sichtbare_Kanten_TC_020513_DIN_
  6
Continuous
 62
     7
100
AcDbLine
 10
182.1764385637501
 20
223.3981166989887
 30
0.0
 11
173.1768551147413
 21
228.5901840734177
 31
0.0
  0
LINE
  5
285
330
1F
100
AcDbEntity
  8
Sichtbare_Kanten_TC_020513_DIN_
  6
Continuous
 62
     7
100
AcDbLine
 10
173.1768551147413
 20
218.2060493245596
 30
0.0
 11
182.1764385637501
 21
223.3981166989887
 31
0.0
  0
LINE
  5
286
330
1F
100
AcDbEntity
  8
Sichtbare_Kanten_TC_020513_DIN_
  6
Continuous
 62
     7
100
AcDbLine
 10
164.1772716657312
 20
223.3981166989887
 30
0.0
 11
173.1768551147413
 21
218.2060493245596
 31
0.0
  0
LINE
  5
287
330
1F
100
AcDbEntity
  8
Sichtbare_Kanten_TC_020513_DIN_
  6
Continuous
 62
     7
100
AcDbLine
 10
168.9768551147412
 20
225.0848957453516
 30
0.0
 11
168.9768551147412
 21
221.7113376526257
 31
0.0
  0
LINE
  5
288
330
1F
100
AcDbEntity
  8
Sichtbare_Kanten_TC_020513_DIN_
  6
Continuous
 62
     7
100
AcDbLine
 10
168.2268551147412
 20
221.7113376526257
 30
0.0
 11
168.2268551147412
 21
225.0848957453516
 31
0.0
  0
LINE
  5
289
330
1F
100
AcDbEntity
  8
Sichtbare_Kanten_TC_020513_DIN_
  6
Continuous
 62
     7
100
AcDbLine
 10
176.3642510347991
 20
226.3183691862738
 30
0.0
 11
178.6142510347991
 21
225.0202922631966
 31
0.0
  0
LINE
  5
28A
330
1F
100
AcDbEntity
  8
Sichtbare_Kanten_TC_020513_DIN_
  6
Continuous
 62
     7
100
AcDbLine
 10
178.2394591946821
 20
224.3706530736607
 30
0.0
 11
176.5518551147414
 21
225.3442708120886
 31
0.0
  0
LINE
  5
28B
330
1F
100
AcDbEntity
  8
Sichtbare_Kanten_TC_020513_DIN_
  6
Continuous
 62
     7
100
AcDbLine
 10
176.5518551147414
 20
225.3442708120886
 30
0.0
 11
176.5518551147414
 21
223.7731166989887
 31
0.0
  0
LINE
  5
28C
330
1F
100
AcDbEntity
  8
Sichtbare_Kanten_TC_020513_DIN_
  6
Continuous
 62
     7
100
AcDbLine
 10
176.5518551147414
 20
223.7731166989887
 30
0.0
 11
178.4268551147414
 21
223.7731166989887
 31
0.0
  0
LINE
  5
28D
330
1F
100
AcDbEntity
  8
Sichtbare_Kanten_TC_020513_DIN_
  6
Continuous
 62
     7
100
AcDbLine
 10
178.4268551147414
 20
223.0231166989887
 30
0.0
 11
176.5518551147414
 21
223.0231166989887
 31
0.0
  0
LINE
  5
28E
330
1F
100
AcDbEntity
  8
Sichtbare_Kanten_TC_020513_DIN_
  6
Continuous
 62
     7
100
AcDbLine
 10
176.5518551147414
 20
223.0231166989887
 30
0.0
 11
176.5518551147414
 21
221.4519625858897
 31
0.0
  0
LINE
  5
28F
330
1F
100
AcDbEntity
  8
Sichtbare_Kanten_TC_020513_DIN_
  6
Continuous
 62
     7
100
AcDbLine
 10
176.5518551147414
 20
221.4519625858897
 30
0.0
 11
178.2394591946821
 21
222.4255803243168
 31
0.0
  0
LINE
  5
290
330
1F
100
AcDbEntity
  8
Sichtbare_Kanten_TC_020513_DIN_
  6
Continuous
 62
     7
100
AcDbLine
 10
178.6142510347991
 20
221.7759411347807
 30
0.0
 11
176.3642510347991
 21
220.4778642117037
 31
0.0
  0
LINE
  5
291
330
1F
100
AcDbEntity
  8
Sichtbare_Kanten_TC_020513_DIN_
  6
Continuous
 62
     7
100
AcDbLine
 10
175.8018551147414
 20
220.8026838064718
 30
0.0
 11
175.8018551147414
 21
225.9935495915057
 31
0.0
  0
LINE
  5
292
330
1F
100
AcDbEntity
  8
1
  6
DOT_CENTER
 62
     2
100
AcDbLine
 10
447.5908551131013
 20
169.7985025058871
 30
0.0
 11
388.0628551131013
 21
169.7985025058871
 31
0.0
  0
LINE
  5
293
330
1F
100
AcDbEntity
  8
1
  6
DOT_CENTER
 62
     2
100
AcDbLine
 10
417.8268551131013
 20
199.5625025058871
 30
0.0
 11
417.8268551131013
 21
140.0345025058871
 31
0.0
  0
LINE
  5
294
330
1F
100
AcDbEntity
  8
1
  6
DOT_CENTER
 62
     2
100
AcDbLine
 10
425.3268551131013
 20
223.7985025058871
 30
0.0
 11
410.3268551131013
 21
223.7985025058871
 31
0.0
  0
LINE
  5
295
330
1F
100
AcDbEntity
  8
1
  6
DOT_CENTER
 62
     2
100
AcDbLine
 10
417.8268551131013
 20
231.2985025058871
 30
0.0
 11
417.8268551131013
 21
216.298502505887
 31
0.0
  0
LINE
  5
296
330
1F
100
AcDbEntity
  8
1
  6
DOT_CENTER
 62
     2
100
AcDbLine
 10
248.9268551147413
 20
223.7985025058871
 30
0.0
 11
239.9268551147414
 21
223.7985025058871
 31
0.0
  0
LINE
  5
297
330
1F
100
AcDbEntity
  8
1
  6
DOT_CENTER
 62
     2
100
AcDbLine
 10
97.42685511474131
 20
223.7985025058871
 30
0.0
 11
106.4268551147413
 21
223.7985025058871
 31
0.0
  0
LINE
  5
298
330
1F
100
AcDbEntity
  8
1
  6
DOT_CENTER
 62
     2
100
AcDbLine
 10
117.6768551147413
 20
147.2985025058871
 30
0.0
 11
117.6768551147413
 21
134.2985025058871
 31
0.0
  0
LINE
  5
299
330
1F
100
AcDbEntity
  8
1
  6
DOT_CENTER
 62
     2
100
AcDbLine
 10
228.6768551147413
 20
147.2985025058871
 30
0.0
 11
228.6768551147413
 21
134.2985025058871
 31
0.0
  0
LINE
  5
29A
330
1F
100
AcDbEntity
  8
1
  6
DOT_CENTER
 62
     2
100
AcDbLine
 10
364.8268551131012
 20
147.2985025058871
 30
0.0
 11
364.8268551131012
 21
134.2985025058871
 31
0.0
  0
LINE
  5
29B
330
1F
100
AcDbEntity
  8
1
  6
DOT_CENTER
 62
     2
100
AcDbLine
 10
470.8268551131012
 20
147.2985025058871
 30
0.0
 11
470.8268551131012
 21
134.2985025058871
 31
0.0
  0
LINE
  5
29C
330
1F
100
AcDbEntity
  8
1
  6
Continuous
 62
     2
100
AcDbLine
 10
243.687663276929
 20
189.7985025058871
 30
0.0
 11
243.697346225226
 21
189.7985025058871
 31
0.0
  0
LINE
  5
29D
330
1F
100
AcDbEntity
  8
1
  6
Continuous
 62
     2
100
AcDbLine
 10
243.687663276929
 20
149.7985025058871
 30
0.0
 11
243.697346225226
 21
149.7985025058871
 31
0.0
  0
LINE
  5
29E
330
1F
100
AcDbEntity
  8
1
  6
Continuous
 62
     2
100
AcDbLine
 10
99.58324341966703
 20
189.7985025058871
 30
0.0
 11
99.59292636796401
 21
189.7985025058871
 31
0.0
  0
LINE
  5
29F
330
1F
100
AcDbEntity
  8
1
  6
Continuous
 62
     2
100
AcDbLine
 10
99.58324341966703
 20
149.7985025058871
 30
0.0
 11
99.59292636796401
 21
149.7985025058871
 31
0.0
  0
LINE
  5
2A0
330
1F
100
AcDbEntity
  8
0
  6
Continuous
 62
     7
100
AcDbLine
 10
100.1768551147413
 20
293.8085530122259
 30
0.0
 11
105.7955495562533
 21
293.8085530122259
 31
0.0
  0
LINE
  5
2A1
330
1F
100
AcDbEntity
  8
0
  6
Continuous
 62
     7
100
AcDbLine
 10
100.1768551147413
 20
292.9814265466675
 30
0.0
 11
105.7955495562533
 21
292.9814265466675
 31
0.0
  0
LINE
  5
2A2
330
1F
100
AcDbEntity
  8
0
  6
Continuous
 62
     7
100
AcDbLine
 10
100.1768551147413
 20
285.6356794777847
 30
0.0
 11
105.7955495562533
 21
285.6356794777847
 31
0.0
  0
LINE
  5
2A3
330
1F
100
AcDbEntity
  8
0
  6
Continuous
 62
     7
100
AcDbLine
 10
100.1768551147413
 20
284.8085530122259
 30
0.0
 11
105.7955495562533
 21
284.8085530122259
 31
0.0
  0
LINE
  5
2A4
330
1F
100
AcDbEntity
  8
0
  6
Continuous
 62
     7
100
AcDbLine
 10
357.8268551131012
 20
285.6356794777846
 30
0.0
 11
357.8268551131012
 21
292.9814265466674
 31
0.0
  0
ARC
  5
2A5
330
1F
100
AcDbEntity
  8
0
  6
Continuous
 62
     7
100
AcDbCircle
 10
347.3268551131013
 20
250.2081413084266
 30
0.0
 40
3.5
100
AcDbArc
 50
180.0
 51
270.0
  0
ARC
  5
2A6
330
1F
100
AcDbEntity
  8
0
  6
Continuous
 62
     7
100
AcDbCircle
 10
494.5380799615589
 20
206.6005228159302
 30
0.0
 40
7.999999999999992
100
AcDbArc
 50
59.99999999999996
 51
91.39648487671218
  0
ARC
  5
2A7
330
1F
100
AcDbEntity
  8
0
  6
Continuous
 62
     7
100
AcDbCircle
 10
494.5380799615589
 20
206.6005228159302
 30
0.0
 40
9.399999999999906
100
AcDbArc
 50
60.00000000000097
 51
91.39648487671306
  0
ARC
  5
2A8
330
1F
100
AcDbEntity
  8
0
  6
Continuous
 62
     7
100
AcDbCircle
 10
476.8268551131011
 20
143.2985025058871
 30
0.0
 40
1.0
100
AcDbArc
 50
0.0
 51
90.0
  0
ARC
  5
2A9
330
1F
100
AcDbEntity
  8
0
  6
Continuous
 62
     7
100
AcDbCircle
 10
363.8268551131013
 20
238.5985025058871
 30
0.0
 40
5.0
100
AcDbArc
 50
0.0
 51
59.96834041284132
  0
ARC
  5
2AA
330
1F
100
AcDbEntity
  8
0
  6
Continuous
 62
     7
100
AcDbCircle
 10
430.3268551131013
 20
254.7985025058871
 30
0.0
 40
4.999999999999959
100
AcDbArc
 50
78.46304096718441
 51
247.7908933488855
  0
ARC
  5
2AB
330
1F
100
AcDbEntity
  8
0
  6
Continuous
 62
     7
100
AcDbCircle
 10
413.8268551131013
 20
235.7985025058871
 30
0.0
 40
9.999999999999952
100
AcDbArc
 50
44.26711799688971
 51
126.869897645844
  0
ARC
  5
2AC
330
1F
100
AcDbEntity
  8
0
  6
Continuous
 62
     7
100
AcDbCircle
 10
494.5380799615589
 20
206.6005228159302
 30
0.0
 40
8.00000000000001
100
AcDbArc
 50
91.39648487671218
 51
120.0
  0
ARC
  5
2AD
330
1F
100
AcDbEntity
  8
0
  6
Continuous
 62
     7
100
AcDbCircle
 10
363.8268551131013
 20
238.5985025058871
 30
0.0
 40
4.999999999999918
100
AcDbArc
 50
120.0316595871587
 51
180.0
  0
ARC
  5
2AE
330
1F
100
AcDbEntity
  8
0
  6
Continuous
 62
     7
100
AcDbCircle
 10
494.5380799615589
 20
206.6005228159302
 30
0.0
 40
9.400000000000043
100
AcDbArc
 50
91.39648487671306
 51
120.0000000000006
  0
ARC
  5
2AF
330
1F
100
AcDbEntity
  8
0
  6
Continuous
 62
     7
100
AcDbCircle
 10
423.3340782067418
 20
237.6710079098323
 30
0.0
 40
13.50000000000002
100
AcDbArc
 50
1.8085615011351
 51
67.79089334888556
  0
ARC
  5
2B0
330
1F
100
AcDbEntity
  8
0
  6
Continuous
 62
     7
100
AcDbCircle
 10
417.8268551131013
 20
223.7985025058871
 30
0.0
 40
5.0
100
AcDbArc
 50
0.0
 51
59.99999999999963
  0
ARC
  5
2B1
330
1F
100
AcDbEntity
  8
0
  6
Continuous
 62
     7
100
AcDbCircle
 10
417.8268551131013
 20
169.7985025058871
 30
0.0
 40
27.0
100
AcDbArc
 50
0.0
 51
180.0
  0
ARC
  5
2B2
330
1F
100
AcDbEntity
  8
0
  6
Continuous
 62
     7
100
AcDbCircle
 10
417.8268551131013
 20
223.7985025058871
 30
0.0
 40
5.75000000000002
100
AcDbArc
 50
329.5918457939514
 51
330.4081542060488
  0
ARC
  5
2B3
330
1F
100
AcDbEntity
  8
0
  6
Continuous
 62
     7
100
AcDbCircle
 10
417.8268551131013
 20
223.7985025058871
 30
0.0
 40
4.999999999999992
100
AcDbArc
 50
300.0000000000001
 51
0.0
  0
ARC
  5
2B4
330
1F
100
AcDbEntity
  8
0
  6
Continuous
 62
     7
100
AcDbCircle
 10
417.8268551131013
 20
223.7985025058871
 30
0.0
 40
4.999999999999943
100
AcDbArc
 50
59.99999999999963
 51
119.9999999999999
  0
ARC
  5
2B5
330
1F
100
AcDbEntity
  8
0
  6
Continuous
 62
     7
100
AcDbCircle
 10
417.8268551131038
 20
223.7985025058827
 30
0.0
 40
5.749999999999971
100
AcDbArc
 50
29.59184579400069
 51
30.40815420609961
  0
ARC
  5
2B6
330
1F
100
AcDbEntity
  8
0
  6
Continuous
 62
     7
100
AcDbCircle
 10
417.8268551131013
 20
223.7985025058871
 30
0.0
 40
5.749999999999946
100
AcDbArc
 50
89.59184579395126
 51
90.40815420604986
  0
ARC
  5
2B7
330
1F
100
AcDbEntity
  8
0
  6
Continuous
 62
     7
100
AcDbCircle
 10
417.8268551131013
 20
223.7985025058871
 30
0.0
 40
5.749999999999937
100
AcDbArc
 50
149.5918457939506
 51
150.4081542060495
  0
ARC
  5
2B8
330
1F
100
AcDbEntity
  8
0
  6
Continuous
 62
     7
100
AcDbCircle
 10
417.8268551131038
 20
223.7985025058827
 30
0.0
 40
5.749999999999984
100
AcDbArc
 50
209.5918457939
 51
210.4081542059993
  0
ARC
  5
2B9
330
1F
100
AcDbEntity
  8
0
  6
Continuous
 62
     7
100
AcDbCircle
 10
417.8268551131013
 20
223.7985025058871
 30
0.0
 40
4.999999999999992
100
AcDbArc
 50
239.9999999999999
 51
300.0000000000001
  0
ARC
  5
2BA
330
1F
100
AcDbEntity
  8
0
  6
Continuous
 62
     7
100
AcDbCircle
 10
417.8268551131013
 20
223.7985025058871
 30
0.0
 40
5.750000000000031
100
AcDbArc
 50
269.5918457939512
 51
270.4081542060488
  0
ARC
  5
2BB
330
1F
100
AcDbEntity
  8
0
  6
Continuous
 62
     7
100
AcDbCircle
 10
417.8268551131013
 20
223.7985025058871
 30
0.0
 40
5.000000000000016
100
AcDbArc
 50
119.9999999999999
 51
180.0
  0
ARC
  5
2BC
330
1F
100
AcDbEntity
  8
0
  6
Continuous
 62
     7
100
AcDbCircle
 10
417.8268551131013
 20
223.7985025058871
 30
0.0
 40
5.0
100
AcDbArc
 50
180.0
 51
239.9999999999999
  0
ARC
  5
2BD
330
1F
100
AcDbEntity
  8
0
  6
Continuous
 62
     2
100
AcDbCircle
 10
417.8268551131013
 20
169.7985025058871
 30
0.0
 40
26.0
100
AcDbArc
 50
0.0
 51
180.0
  0
ARC
  5
2BE
330
1F
100
AcDbEntity
  8
0
  6
Continuous
 62
     2
100
AcDbCircle
 10
417.8268551131013
 20
169.7985025058871
 30
0.0
 40
28.0
100
AcDbArc
 50
0.0
 51
180.0
  0
ARC
  5
2BF
330
1F
100
AcDbEntity
  8
0
  6
Continuous
 62
     7
100
AcDbCircle
 10
371.3268551131013
 20
145.2985025058871
 30
0.0
 40
1.0
100
AcDbArc
 50
270.0
 51
0.0
  0
ARC
  5
2C0
330
1F
100
AcDbEntity
  8
0
  6
Continuous
 62
     7
100
AcDbCircle
 10
445.8268551131013
 20
145.2985025058871
 30
0.0
 40
1.0
100
AcDbArc
 50
180.0
 51
270.0
  0
ARC
  5
2C1
330
1F
100
AcDbEntity
  8
0
  6
Continuous
 62
     7
100
AcDbCircle
 10
464.3268551131013
 20
145.298502505887
 30
0.0
 40
1.0
100
AcDbArc
 50
179.9999999999951
 51
270.0
  0
ARC
  5
2C2
330
1F
100
AcDbEntity
  8
0
  6
Continuous
 62
     7
100
AcDbCircle
 10
389.8268551131013
 20
145.2985025058871
 30
0.0
 40
1.0
100
AcDbArc
 50
270.0
 51
0.0
  0
ARC
  5
2C3
330
1F
100
AcDbEntity
  8
0
  6
Continuous
 62
     2
100
AcDbCircle
 10
445.8268551131013
 20
145.2985025058871
 30
0.0
 40
2.0
100
AcDbArc
 50
180.0
 51
270.0
  0
ARC
  5
2C4
330
1F
100
AcDbEntity
  8
0
  6
Continuous
 62
     2
100
AcDbCircle
 10
389.8268551131013
 20
145.2985025058871
 30
0.0
 40
2.0
100
AcDbArc
 50
270.0
 51
0.0
  0
ARC
  5
2C5
330
1F
100
AcDbEntity
  8
0
  6
Continuous
 62
     7
100
AcDbCircle
 10
347.3268551131013
 20
328.4149989007607
 30
0.0
 40
3.5
100
AcDbArc
 50
90.0
 51
180.0
  0
ARC
  5
2C6
330
1F
100
AcDbEntity
  8
0
  6
Continuous
 62
     7
100
AcDbCircle
 10
412.8268551131013
 20
218.7985025058871
 30
0.0
 40
5.0
100
AcDbArc
 50
180.0
 51
270.0
  0
ARC
  5
2C7
330
1F
100
AcDbEntity
  8
0
  6
Continuous
 62
     7
100
AcDbCircle
 10
437.8268551131013
 20
238.1286295248092
 30
0.0
 40
1.000000000000018
100
AcDbArc
 50
181.808561501134
 51
239.9999999999994
  0
ARC
  5
2C8
330
1F
100
AcDbEntity
  8
0
  6
Continuous
 62
     7
100
AcDbCircle
 10
435.3268551131013
 20
233.7985025058871
 30
0.0
 40
3.999999999999996
100
AcDbArc
 50
38.68218745348948
 51
59.99999999999967
  0
ARC
  5
2C9
330
1F
100
AcDbEntity
  8
0
  6
Continuous
 62
     7
100
AcDbCircle
 10
435.3268551131013
 20
233.7985025058871
 30
0.0
 40
4.000000000000082
100
AcDbArc
 50
228.5903778907278
 51
311.4096221092698
  0
ARC
  5
2CA
330
1F
100
AcDbEntity
  8
0
  6
Continuous
 62
     7
100
AcDbCircle
 10
435.3268551131013
 20
233.7985025058871
 30
0.0
 40
3.999999999999931
100
AcDbArc
 50
311.4096221092698
 51
38.68218745348948
  0
ARC
  5
2CB
330
1F
100
AcDbEntity
  8
0
  6
Continuous
 62
     7
100
AcDbCircle
 10
366.244288928287
 20
235.6095680810501
 30
0.0
 40
2.99999999999998
100
AcDbArc
 50
346.5265370497279
 51
30.5872373297929
  0
ARC
  5
2CC
330
1F
100
AcDbEntity
  8
0
  6
Continuous
 62
     7
100
AcDbCircle
 10
435.3268551131013
 20
233.7985025058871
 30
0.0
 40
3.999999999999997
100
AcDbArc
 50
224.267117996889
 51
228.5903778907278
  0
ARC
  5
2CD
330
1F
100
AcDbEntity
  8
0
  6
Continuous
 62
     7
100
AcDbCircle
 10
363.3268551131013
 20
236.308553012226
 30
0.0
 40
6.000000000000019
100
AcDbArc
 50
336.4435356908983
 51
346.5265370497276
  0
ARC
  5
2CE
330
1F
100
AcDbEntity
  8
0
  6
Continuous
 62
     7
100
AcDbCircle
 10
363.3268551131013
 20
236.308553012226
 30
0.0
 40
6.000000000000044
100
AcDbArc
 50
214.8173972808311
 51
221.4096221092709
  0
ARC
  5
2CF
330
1F
100
AcDbEntity
  8
0
  6
Continuous
 62
     7
100
AcDbCircle
 10
358.8268551131013
 20
143.2985025058871
 30
0.0
 40
1.0
100
AcDbArc
 50
90.0
 51
180.0
  0
ARC
  5
2D0
330
1F
100
AcDbEntity
  8
0
  6
Continuous
 62
     7
100
AcDbCircle
 10
241.9268551147414
 20
197.7985025058871
 30
0.0
 40
1.0
100
AcDbArc
 50
180.0
 51
270.0
  0
ARC
  5
2D1
330
1F
100
AcDbEntity
  8
0
  6
Continuous
 62
     7
100
AcDbCircle
 10
225.1768551147413
 20
258.308553012226
 30
0.0
 40
14.0
100
AcDbArc
 50
270.0
 51
0.0
  0
ARC
  5
2D2
330
1F
100
AcDbEntity
  8
0
  6
Continuous
 62
     7
100
AcDbCircle
 10
225.5581606732294
 20
257.9272474537378
 30
0.0
 40
14.99999999999989
100
AcDbArc
 50
270.0
 51
0.0
  0
ARC
  5
2D3
330
1F
100
AcDbEntity
  8
0
  6
Continuous
 62
     7
100
AcDbCircle
 10
121.1768551147413
 20
258.308553012226
 30
0.0
 40
14.0
100
AcDbArc
 50
180.0
 51
270.0
  0
ARC
  5
2D4
330
1F
100
AcDbEntity
  8
0
  6
Continuous
 62
     7
100
AcDbCircle
 10
120.7955495562533
 20
257.9272474537378
 30
0.0
 40
15.0
100
AcDbArc
 50
180.0
 51
270.0
  0
ARC
  5
2D5
330
1F
100
AcDbEntity
  8
0
  6
Continuous
 62
     7
100
AcDbCircle
 10
104.4268551147412
 20
197.7985025058871
 30
0.0
 40
1.0
100
AcDbArc
 50
270.0
 51
0.0
  0
ARC
  5
2D6
330
1F
100
AcDbEntity
  8
0
  6
Continuous
 62
     7
100
AcDbCircle
 10
102.4268551147413
 20
192.7385025058871
 30
0.0
 40
0.7499999999999517
100
AcDbArc
 50
70.528779365508
 51
180.0
  0
ARC
  5
2D7
330
1F
100
AcDbEntity
  8
0
  6
Continuous
 62
     7
100
AcDbCircle
 10
242.6768551147413
 20
195.7985025058871
 30
0.0
 40
1.0
100
AcDbArc
 50
0.0
 51
90.0
  0
ARC
  5
2D8
330
1F
100
AcDbEntity
  8
0
  6
Continuous
 62
     7
100
AcDbCircle
 10
224.6768551147413
 20
319.808553012226
 30
0.0
 40
9.5
100
AcDbArc
 50
0.0
 51
90.0
  0
ARC
  5
2D9
330
1F
100
AcDbEntity
  8
0
  6
Continuous
 62
     7
100
AcDbCircle
 10
225.1768551147413
 20
320.308553012226
 30
0.0
 40
14.0
100
AcDbArc
 50
0.0
 51
90.0
  0
ARC
  5
2DA
330
1F
100
AcDbEntity
  8
0
  6
Continuous
 62
     7
100
AcDbCircle
 10
224.6768551147413
 20
258.8085530122259
 30
0.0
 40
9.499999999999886
100
AcDbArc
 50
270.0
 51
0.00000000000069
  0
ARC
  5
2DB
330
1F
100
AcDbEntity
  8
0
  6
Continuous
 62
     7
100
AcDbCircle
 10
102.4268551147413
 20
146.858502505887
 30
0.0
 40
0.75
100
AcDbArc
 50
180.0
 51
289.471220634492
  0
ARC
  5
2DC
330
1F
100
AcDbEntity
  8
0
  6
Continuous
 62
     7
100
AcDbCircle
 10
242.6768551147413
 20
143.2985025058871
 30
0.0
 40
1.0
100
AcDbArc
 50
0.0
 51
90.0
  0
ARC
  5
2DD
330
1F
100
AcDbEntity
  8
0
  6
Continuous
 62
     7
100
AcDbCircle
 10
221.1768551147413
 20
143.2985025058871
 30
0.0
 40
1.0
100
AcDbArc
 50
90.0
 51
180.0
  0
ARC
  5
2DE
330
1F
100
AcDbEntity
  8
0
  6
Continuous
 62
     7
100
AcDbCircle
 10
241.9268551147414
 20
145.2985025058871
 30
0.0
 40
1.0
100
AcDbArc
 50
180.0
 51
270.0
  0
ARC
  5
2DF
330
1F
100
AcDbEntity
  8
0
  6
Continuous
 62
     7
100
AcDbCircle
 10
104.4268551147412
 20
145.298502505887
 30
0.0
 40
0.9999999999999147
100
AcDbArc
 50
270.0
 51
0.00000000000489
  0
ARC
  5
2E0
330
1F
100
AcDbEntity
  8
0
  6
Continuous
 62
     7
100
AcDbCircle
 10
125.1768551147413
 20
143.2985025058871
 30
0.0
 40
1.0
100
AcDbArc
 50
0.0
 51
90.0
  0
ARC
  5
2E1
330
1F
100
AcDbEntity
  8
0
  6
Continuous
 62
     7
100
AcDbCircle
 10
103.6768551147413
 20
143.2985025058871
 30
0.0
 40
1.0
100
AcDbArc
 50
90.0
 51
180.0
  0
ARC
  5
2E2
330
1F
100
AcDbEntity
  8
0
  6
Continuous
 62
     7
100
AcDbCircle
 10
100.6768551147413
 20
145.5585025058871
 30
0.0
 40
0.9999999999999858
100
AcDbArc
 50
180.0
 51
270.0
  0
ARC
  5
2E3
330
1F
100
AcDbEntity
  8
0
  6
Continuous
 62
     7
100
AcDbCircle
 10
121.6768551147414
 20
319.8085530122259
 30
0.0
 40
9.500000000000114
100
AcDbArc
 50
90.0
 51
180.0
  0
ARC
  5
2E4
330
1F
100
AcDbEntity
  8
0
  6
Continuous
 62
     7
100
AcDbCircle
 10
100.6768551147413
 20
194.038502505887
 30
0.0
 40
1.0
100
AcDbArc
 50
90.0
 51
180.0
  0
ARC
  5
2E5
330
1F
100
AcDbEntity
  8
0
  6
Continuous
 62
     7
100
AcDbCircle
 10
103.6768551147413
 20
195.7985025058871
 30
0.0
 40
1.0
100
AcDbArc
 50
90.0
 51
180.0
  0
ARC
  5
2E6
330
1F
100
AcDbEntity
  8
0
  6
Continuous
 62
     7
100
AcDbCircle
 10
121.6768551147413
 20
258.808553012226
 30
0.0
 40
9.5
100
AcDbArc
 50
180.0
 51
270.0
  0
ARC
  5
2E7
330
1F
100
AcDbEntity
  8
0
  6
Continuous
 62
     7
100
AcDbCircle
 10
121.1768551147414
 20
320.3085530122258
 30
0.0
 40
14.00000000000023
100
AcDbArc
 50
90.0
 51
180.0
  0
ARC
  5
2E8
330
1F
100
AcDbEntity
  8
0
  6
Continuous
 62
     7
100
AcDbCircle
 10
120.7955495562532
 20
320.6898585707141
 30
0.0
 40
15.0
100
AcDbArc
 50
90.0
 51
180.0
  0
ARC
  5
2E9
330
1F
100
AcDbEntity
  8
0
  6
Continuous
 62
     7
100
AcDbCircle
 10
225.5581606732294
 20
320.6898585707141
 30
0.0
 40
15.0
100
AcDbArc
 50
0.0
 51
90.0
  0
ARC
  5
2EA
330
1F
100
AcDbEntity
  8
Sichtbare_Kanten_TC_020513_DIN_
  6
Continuous
 62
     7
100
AcDbCircle
 10
171.6768551147413
 20
221.7113376526257
 30
0.0
 40
0.375
100
AcDbArc
 50
180.0
 51
0.0
  0
ARC
  5
2EB
330
1F
100
AcDbEntity
  8
Sichtbare_Kanten_TC_020513_DIN_
  6
Continuous
 62
     7
100
AcDbCircle
 10
171.6768551147413
 20
226.8589342068907
 30
0.0
 40
0.3749999999992797
100
AcDbArc
 50
35.90957617705609
 51
180.0
  0
ARC
  5
2EC
330
1F
100
AcDbEntity
  8
Sichtbare_Kanten_TC_020513_DIN_
  6
Continuous
 62
     7
100
AcDbCircle
 10
174.6768551147414
 20
226.8589342068907
 30
0.0
 40
0.375
100
AcDbArc
 50
0.0
 51
144.0904238230407
  0
ARC
  5
2ED
330
1F
100
AcDbEntity
  8
Sichtbare_Kanten_TC_020513_DIN_
  6
Continuous
 62
     7
100
AcDbCircle
 10
174.6768551147414
 20
219.9372991910877
 30
0.0
 40
0.375
100
AcDbArc
 50
180.0
 51
0.0
  0
ARC
  5
2EE
330
1F
100
AcDbEntity
  8
Sichtbare_Kanten_TC_020513_DIN_
  6
Continuous
 62
     7
100
AcDbCircle
 10
170.1018551147412
 20
225.9502803607366
 30
0.0
 40
0.375
100
AcDbArc
 50
0.0
 51
180.0
  0
ARC
  5
2EF
330
1F
100
AcDbEntity
  8
Sichtbare_Kanten_TC_020513_DIN_
  6
Continuous
 62
     7
100
AcDbCircle
 10
173.1768551147413
 20
219.0719145757028
 30
0.0
 40
0.3750000000002842
100
AcDbArc
 50
240.0183606310679
 51
60.01836063121709
  0
ARC
  5
2F0
330
1F
100
AcDbEntity
  8
Sichtbare_Kanten_TC_020513_DIN_
  6
Continuous
 62
     7
100
AcDbCircle
 10
170.1018551147412
 20
220.8459530372408
 30
0.0
 40
0.375
100
AcDbArc
 50
180.0
 51
240.0183606310943
  0
ARC
  5
2F1
330
1F
100
AcDbEntity
  8
Sichtbare_Kanten_TC_020513_DIN_
  6
Continuous
 62
     7
100
AcDbCircle
 10
168.6018551147412
 20
221.7113376526257
 30
0.0
 40
0.375
100
AcDbArc
 50
180.0
 51
0.0
  0
ARC
  5
2F2
330
1F
100
AcDbEntity
  8
Sichtbare_Kanten_TC_020513_DIN_
  6
Continuous
 62
     7
100
AcDbCircle
 10
168.6018551147412
 20
225.0848957453516
 30
0.0
 40
0.375
100
AcDbArc
 50
0.0
 51
180.0
  0
ARC
  5
2F3
330
1F
100
AcDbEntity
  8
Sichtbare_Kanten_TC_020513_DIN_
  6
Continuous
 62
     7
100
AcDbCircle
 10
176.1768551147414
 20
225.9935495915057
 30
0.0
 40
0.3749999999994472
100
AcDbArc
 50
60.01836063125482
 51
180.0
  0
ARC
  5
2F4
330
1F
100
AcDbEntity
  8
Sichtbare_Kanten_TC_020513_DIN_
  6
Continuous
 62
     7
100
AcDbCircle
 10
178.4268551147414
 20
224.6954726684288
 30
0.0
 40
0.375000000000253
100
AcDbArc
 50
240.0183606310501
 51
60.01836063123313
  0
ARC
  5
2F5
330
1F
100
AcDbEntity
  8
Sichtbare_Kanten_TC_020513_DIN_
  6
Continuous
 62
     7
100
AcDbCircle
 10
178.4268551147414
 20
223.3981166989887
 30
0.0
 40
0.375
100
AcDbArc
 50
270.0
 51
90.0
  0
ARC
  5
2F6
330
1F
100
AcDbEntity
  8
Sichtbare_Kanten_TC_020513_DIN_
  6
Continuous
 62
     7
100
AcDbCircle
 10
178.4268551147414
 20
222.1007607295487
 30
0.0
 40
0.3749999999993733
100
AcDbArc
 50
299.9816393687516
 51
119.9816393689521
  0
ARC
  5
2F7
330
1F
100
AcDbEntity
  8
Sichtbare_Kanten_TC_020513_DIN_
  6
Continuous
 62
     7
100
AcDbCircle
 10
176.1768551147414
 20
220.8026838064718
 30
0.0
 40
0.375
100
AcDbArc
 50
180.0
 51
299.981639368743
  0
ARC
  5
2F8
330
1F
100
AcDbEntity
  8
1
  6
DASHED
 62
     7
100
AcDbCircle
 10
417.8268551131013
 20
223.7985025058871
 30
0.0
 40
94.00259450639834
100
AcDbArc
 50
328.3250034288042
 51
350.4618221486563
  0
ARC
  5
2F9
330
1F
100
AcDbEntity
  8
1
  6
DASHED
 62
     7
100
AcDbCircle
 10
417.8268551131013
 20
223.7985025058871
 30
0.0
 40
94.0025945063983
100
AcDbArc
 50
350.4618221486563
 51
0.0
  0
ARC
  5
2FA
330
1F
100
AcDbEntity
  8
0
  6
Continuous
 62
     7
100
AcDbCircle
 10
355.2268551131013
 20
289.308553012226
 30
0.0
 40
4.499999999999961
100
AcDbArc
 50
54.70560532334092
 51
90.0
  0
ARC
  5
2FB
330
1F
100
AcDbEntity
  8
0
  6
Continuous
 62
     7
100
AcDbCircle
 10
355.2268551131013
 20
289.308553012226
 30
0.0
 40
4.5
100
AcDbArc
 50
270.0
 51
305.2943946766591
  0
ARC
  5
2FC
330
1F
100
AcDbEntity
  8
0
  6
Continuous
 62
     7
100
AcDbCircle
 10
355.2268551131013
 20
289.308553012226
 30
0.0
 40
4.499999999999886
100
AcDbArc
 50
90.0
 51
270.0
  0
CIRCLE
  5
2FD
330
1F
100
AcDbEntity
  8
0
  6
Continuous
 62
     2
100
AcDbCircle
 10
417.8268551131013
 20
169.7985025058871
 30
0.0
 40
24.24000000000001
  0
CIRCLE
  5
2FE
330
1F
100
AcDbEntity
  8
0
  6
Continuous
 62
     7
100
AcDbCircle
 10
417.8268551131013
 20
169.7985025058871
 30
0.0
 40
25.24000000000001
  0
SPLINE
  5
2FF
330
1F
100
AcDbEntity
  8
0
  6
Continuous
 62
     7
100
AcDbSpline
210
0.0
220
0.0
230
1.0
 70
     8
 71
     3
 72
    15
 73
    11
 74
     9
 42
0.000000001
 43
0.0000000001
 44
0.00000001
 40
0.0
 40
0.0
 40
0.0
 40
0.0
 40
0.3995374543053347
 40
0.7817460540678147
 40
1.14987784094013
 40
1.506957751821787
 40
1.855873764385805
 40
2.199428007795432
 40
2.540404362577005
 40
2.881625200173985
 40
2.881625200173985
 40
2.881625200173985
 40
2.881625200173985
 10
98.85986781663358
 20
226.6379566787872
 30
0.0
 10
98.82434076822182
 20
226.5095937979084
 30
0.0
 10
98.75482757479811
 20
226.2584354245509
 30
0.0
 10
98.66630732143146
 20
225.8854166568035
 30
0.0
 10
98.59176997545222
 20
225.5238234711549
 30
0.0
 10
98.53153151608194
 20
225.1708113058459
 30
0.0
 10
98.48474501034298
 20
224.8240207516946
 30
0.0
 10
98.45161614091896
 20
224.4810735419298
 30
0.0
 10
98.43072898395015
 20
224.1396641960773
 30
0.0
 10
98.42814670807698
 20
223.9122502359166
 30
0.0
 10
98.42685511474131
 20
223.7985025058871
 30
0.0
 11
98.85986781663358
 21
226.6379566787872
 31
0.0
 11
98.75572440336738
 21
226.2522309645158
 31
0.0
 11
98.66710729134171
 21
225.8804374448545
 31
0.0
 11
98.59312389092773
 21
225.5198164954602
 31
0.0
 11
98.53315126813787
 21
225.16780889965
 31
0.0
 11
98.48670728631517
 21
224.8219977652631
 31
0.0
 11
98.45354980103023
 21
224.4800473307327
 31
0.0
 11
98.43355921611797
 21
224.1396574785902
 31
0.0
 11
98.42685511474131
 21
223.7985025058871
 31
0.0
  0
SPLINE
  5
300
330
1F
100
AcDbEntity
  8
0
  6
Continuous
 62
     7
100
AcDbSpline
210
0.0
220
0.0
230
1.0
 70
     8
 71
     3
 72
    15
 73
    11
 74
     9
 42
0.000000001
 43
0.0000000001
 44
0.00000001
 40
0.0
 40
0.0
 40
0.0
 40
0.0
 40
0.1707095286528966
 40
0.3420740529304765
 40
0.5162357150758023
 40
0.695269277924387
 40
0.8812117447817404
 40
1.076108713968239
 40
1.282048949408632
 40
1.501231740389563
 40
1.501231740389563
 40
1.501231740389563
 40
1.501231740389563
 10
98.42685511474131
 20
228.1286295248092
 30
0.0
 10
98.42815163051303
 20
228.0717115931307
 30
0.0
 10
98.43074965122952
 20
227.9576573418595
 30
0.0
 10
98.45172948446799
 20
227.7866005549872
 30
0.0
 10
98.48498449078733
 20
227.6148206204361
 30
0.0
 10
98.53192215611054
 20
227.4411858620273
 30
0.0
 10
98.592335344339
 20
227.2644774772532
 30
0.0
 10
98.66699888507182
 20
227.083591230387
 30
0.0
 10
98.75579514503116
 20
226.8968189729369
 30
0.0
 10
98.82446391252054
 20
226.7728287105145
 30
0.0
 10
98.85986781663358
 20
226.7089024383592
 30
0.0
 11
98.42685511474131
 21
228.1286295248092
 31
0.0
 11
98.43355982437915
 21
227.9580517112342
 31
0.0
 11
98.45354980103023
 21
227.7878571123865
 31
0.0
 11
98.48670792979088
 21
227.616881022119
 31
0.0
 11
98.53315126813787
 21
227.4439763279278
 31
0.0
 11
98.59312467894397
 21
227.2679712392739
 31
0.0
 11
98.66710729134182
 21
227.0876620553255
 31
0.0
 11
98.75572542085489
 21
226.9017636753868
 31
0.0
 11
98.85986781663358
 21
226.7089024383592
 31
0.0
  0
SPLINE
  5
301
330
1F
100
AcDbEntity
  8
0
  6
Continuous
 62
     7
100
AcDbSpline
210
0.0
220
0.0
230
1.0
 70
     8
 71
     3
 72
    15
 73
    11
 74
     9
 42
0.000000001
 43
0.0000000001
 44
0.00000001
 40
0.0
 40
0.0
 40
0.0
 40
0.0
 40
0.2191827909813283
 40
0.4251230264213292
 40
0.6200199956078376
 40
0.8059624624651509
 40
0.984996025313752
 40
1.159157687459086
 40
1.330522211736639
 40
1.50123174038962
 40
1.50123174038962
 40
1.50123174038962
 40
1.50123174038962
 10
98.85986781663358
 20
229.5483566112593
 30
0.0
 10
98.82446391252046
 20
229.4844303391038
 30
0.0
 10
98.75579514503096
 20
229.3604400766816
 30
0.0
 10
98.66699888507179
 20
229.1736678192314
 30
0.0
 10
98.59233534433903
 20
228.9927815723652
 30
0.0
 10
98.53192215611054
 20
228.8160731875913
 30
0.0
 10
98.48498449078738
 20
228.6424384291824
 30
0.0
 10
98.451729484468
 20
228.4706584946314
 30
0.0
 10
98.43074965122949
 20
228.2996017077589
 30
0.0
 10
98.42815163051301
 20
228.1855474564878
 30
0.0
 10
98.42685511474131
 20
228.1286295248092
 30
0.0
 11
98.85986781663358
 21
229.5483566112593
 31
0.0
 11
98.75572542085463
 21
229.3554953742314
 31
0.0
 11
98.66710729134182
 21
229.169596994293
 31
0.0
 11
98.59312467894401
 21
228.9892878103445
 31
0.0
 11
98.53315126813787
 21
228.8132827216907
 31
0.0
 11
98.48670792979092
 21
228.6403780274995
 31
0.0
 11
98.45354980103023
 21
228.469401937232
 31
0.0
 11
98.43355982437913
 21
228.2992073383843
 31
0.0
 11
98.42685511474131
 21
228.1286295248092
 31
0.0
  0
SPLINE
  5
302
330
1F
100
AcDbEntity
  8
0
  6
Continuous
 62
     7
100
AcDbSpline
210
0.0
220
0.0
230
1.0
 70
     8
 71
     3
 72
    15
 73
    11
 74
     9
 42
0.000000001
 43
0.0000000001
 44
0.00000001
 40
0.0
 40
0.0
 40
0.0
 40
0.0
 40
0.2191827909813283
 40
0.4251230264213292
 40
0.6200199956078902
 40
0.8059624624652842
 40
0.9849960253138926
 40
1.159157687459082
 40
1.33052221173669
 40
1.501231740389643
 40
1.501231740389643
 40
1.501231740389643
 40
1.501231740389643
 10
98.85986781663358
 20
220.888102573415
 30
0.0
 10
98.82446391252046
 20
220.8241763012595
 30
0.0
 10
98.75579514503094
 20
220.7001860388373
 30
0.0
 10
98.66699888507182
 20
220.513413781387
 30
0.0
 10
98.59233534433902
 20
220.3325275345209
 30
0.0
 10
98.53192215611054
 20
220.1558191497467
 30
0.0
 10
98.48498449078735
 20
219.9821843913381
 30
0.0
 10
98.45172948446799
 20
219.810404456787
 30
0.0
 10
98.43074965122952
 20
219.6393476699146
 30
0.0
 10
98.428151630513
 20
219.5252934186434
 30
0.0
 10
98.42685511474131
 20
219.4683754869649
 30
0.0
 11
98.85986781663358
 21
220.888102573415
 31
0.0
 11
98.75572542085463
 21
220.6952413363871
 31
0.0
 11
98.66710729134182
 21
220.5093429564487
 31
0.0
 11
98.59312467894401
 21
220.3290337725002
 31
0.0
 11
98.53315126813787
 21
220.1530286838463
 31
0.0
 11
98.4867079297909
 21
219.980123989655
 31
0.0
 11
98.45354980103023
 21
219.8091478993877
 31
0.0
 11
98.43355982437915
 21
219.63895330054
 31
0.0
 11
98.42685511474131
 21
219.4683754869649
 31
0.0
  0
SPLINE
  5
303
330
1F
100
AcDbEntity
  8
0
  6
Continuous
 62
     7
100
AcDbSpline
210
0.0
220
0.0
230
1.0
 70
     8
 71
     3
 72
    15
 73
    11
 74
     9
 42
0.000000001
 43
0.0000000001
 44
0.00000001
 40
0.0
 40
0.0
 40
0.0
 40
0.0
 40
0.3412208375970654
 40
0.6821971923786094
 40
1.02575143578821
 40
1.374667448352282
 40
1.731747359233967
 40
2.099879146106361
 40
2.482087745868711
 40
2.881625200174065
 40
2.881625200174065
 40
2.881625200174065
 40
2.881625200174065
 10
98.42685511474131
 20
223.7985025058871
 30
0.0
 10
98.42814670807701
 20
223.6847547758576
 30
0.0
 10
98.43072898395012
 20
223.4573408156968
 30
0.0
 10
98.45161614091897
 20
223.1159314698444
 30
0.0
 10
98.48474501034299
 20
222.7729842600795
 30
0.0
 10
98.53153151608191
 20
222.4261937059281
 30
0.0
 10
98.5917699754522
 20
222.0731815406192
 30
0.0
 10
98.6663073214316
 20
221.7115883549705
 30
0.0
 10
98.75482757479821
 20
221.3385695872233
 30
0.0
 10
98.82434076822176
 20
221.0874112138657
 30
0.0
 10
98.85986781663358
 20
220.9590483329869
 30
0.0
 11
98.42685511474131
 21
223.7985025058871
 31
0.0
 11
98.43355921611797
 21
223.4573475331839
 31
0.0
 11
98.45354980103023
 21
223.1169576810414
 31
0.0
 11
98.48670728631518
 21
222.7750072465111
 31
0.0
 11
98.53315126813787
 21
222.4291961121241
 31
0.0
 11
98.59312389092773
 21
222.0771885163138
 31
0.0
 11
98.66710729134182
 21
221.7165675669195
 31
0.0
 11
98.75572440336741
 21
221.3447740472583
 31
0.0
 11
98.85986781663358
 21
220.9590483329869
 31
0.0
  0
SPLINE
  5
304
330
1F
100
AcDbEntity
  8
0
  6
Continuous
 62
     7
100
AcDbSpline
210
0.0
220
0.0
230
1.0
 70
     8
 71
     3
 72
    15
 73
    11
 74
     9
 42
0.000000001
 43
0.0000000001
 44
0.00000001
 40
0.0
 40
0.0
 40
0.0
 40
0.0
 40
0.1707095286529818
 40
0.3420740529305618
 40
0.5162357150759236
 40
0.6952692779244698
 40
0.8812117447818009
 40
1.07610871396832
 40
1.28204894940834
 40
1.50123174038965
 40
1.50123174038965
 40
1.50123174038965
 40
1.50123174038965
 10
98.42685511474131
 20
219.4683754869649
 30
0.0
 10
98.42815163051306
 20
219.4114575552864
 30
0.0
 10
98.43074965122949
 20
219.2974033040151
 30
0.0
 10
98.45172948446799
 20
219.1263465171428
 30
0.0
 10
98.48498449078743
 20
218.9545665825917
 30
0.0
 10
98.53192215611051
 20
218.7809318241829
 30
0.0
 10
98.592335344339
 20
218.6042234394089
 30
0.0
 10
98.66699888507176
 20
218.4233371925428
 30
0.0
 10
98.75579514503094
 20
218.2365649350925
 30
0.0
 10
98.82446391252044
 20
218.1125746726703
 30
0.0
 10
98.85986781663358
 20
218.0486484005148
 30
0.0
 11
98.42685511474131
 21
219.4683754869649
 31
0.0
 11
98.43355982437915
 21
219.2977976733898
 31
0.0
 11
98.45354980103023
 21
219.1276030745421
 31
0.0
 11
98.48670792979092
 21
218.9566269842746
 31
0.0
 11
98.53315126813787
 21
218.7837222900834
 31
0.0
 11
98.59312467894398
 21
218.6077172014296
 31
0.0
 11
98.66710729134182
 21
218.4274080174811
 31
0.0
 11
98.75572542085462
 21
218.2415096375427
 31
0.0
 11
98.85986781663358
 21
218.0486484005148
 31
0.0
  0
SPLINE
  5
305
330
1F
100
AcDbEntity
  8
0
  6
Continuous
 62
     7
100
AcDbSpline
210
0.0
220
0.0
230
1.0
 70
     8
 71
     3
 72
    11
 73
     7
 74
     5
 42
0.000000001
 43
0.0000000001
 44
0.00000001
 40
0.0
 40
0.0
 40
0.0
 40
0.0
 40
0.078058970835161
 40
0.145582724397957
 40
0.2368412714084102
 40
0.3145495805303566
 40
0.3145495805303566
 40
0.3145495805303566
 40
0.3145495805303566
 10
213.1340524524437
 20
242.6604542180808
 30
0.0
 10
213.1600954099978
 20
242.6585455485139
 30
0.0
 10
213.2086664395048
 20
242.6549857986452
 30
0.0
 10
213.2844026242374
 20
242.6311854341026
 30
0.0
 10
213.3566656854894
 20
242.59919857593
 30
0.0
 10
213.4047438444436
 20
242.5697637788027
 30
0.0
 10
213.4268551147413
 20
242.5562266305468
 30
0.0
 11
213.1340524524437
 21
242.6604542180808
 31
0.0
 11
213.2116014109479
 21
242.6515456742634
 31
0.0
 11
213.2764047098314
 21
242.632572272642
 31
0.0
 11
213.3597700038189
 21
242.5954461300536
 31
0.0
 11
213.4268551147413
 21
242.5562266305468
 31
0.0
  0
SPLINE
  5
306
330
1F
100
AcDbEntity
  8
0
  6
Continuous
 62
     7
100
AcDbSpline
210
0.0
220
0.0
230
1.0
 70
     8
 71
     3
 72
    11
 73
     7
 74
     5
 42
0.000000001
 43
0.0000000001
 44
0.00000001
 40
0.0
 40
0.0
 40
0.0
 40
0.0
 40
3.106553420969265
 40
6.105146902569174
 40
8.944049853013459
 40
11.66439150363939
 40
11.66439150363939
 40
11.66439150363939
 40
11.66439150363939
 10
234.2768551147414
 20
212.8918251367814
 30
0.0
 10
235.3191640157909
 20
212.9930001234727
 30
0.0
 10
237.3675591623573
 20
213.1918340454533
 30
0.0
 10
239.9980319153472
 20
214.7498254224587
 30
0.0
 10
241.8966118407942
 20
217.0372954803091
 30
0.0
 10
242.1519223528567
 20
218.9057333825253
 30
0.0
 10
242.2768551147414
 20
219.8200283670569
 30
0.0
 11
234.2768551147414
 21
212.8918251367814
 31
0.0
 11
237.3383132652858
 21
213.4192226672031
 31
0.0
 11
239.9337093642337
 21
214.9210488814905
 31
0.0
 11
241.6678689024235
 21
217.1687278360625
 31
0.0
 11
242.2768551147414
 21
219.8200283670569
 31
0.0
  0
SPLINE
  5
307
330
1F
100
AcDbEntity
  8
0
  6
Continuous
 62
     7
100
AcDbSpline
210
0.0
220
0.0
230
1.0
 70
     8
 71
     3
 72
    11
 73
     7
 74
     5
 42
0.000000001
 43
0.0000000001
 44
0.00000001
 40
0.0
 40
0.0
 40
0.0
 40
0.0
 40
0.0777083091198106
 40
0.1689668561324975
 40
0.2364906096977092
 40
0.314549580530465
 40
0.314549580530465
 40
0.314549580530465
 40
0.314549580530465
 10
132.9268551147413
 20
242.5562266305468
 30
0.0
 10
132.9489663850383
 20
242.5697637788023
 30
0.0
 10
132.9970445439926
 20
242.5991985759296
 30
0.0
 10
133.0693076052453
 20
242.6311854341029
 30
0.0
 10
133.1450437899787
 20
242.6549857986453
 30
0.0
 10
133.1936148194858
 20
242.6585455485141
 30
0.0
 10
133.219657777039
 20
242.6604542180808
 30
0.0
 11
132.9268551147413
 21
242.5562266305468
 31
0.0
 11
132.9939402256618
 21
242.5954461300526
 31
0.0
 11
133.0773055196513
 21
242.632572272642
 31
0.0
 11
133.1421088185372
 21
242.6515456742639
 31
0.0
 11
133.219657777039
 21
242.6604542180808
 31
0.0
  0
SPLINE
  5
308
330
1F
100
AcDbEntity
  8
0
  6
Continuous
 62
     7
100
AcDbSpline
210
0.0
220
0.0
230
1.0
 70
     8
 71
     3
 72
    11
 73
     7
 74
     5
 42
0.000000001
 43
0.0000000001
 44
0.00000001
 40
0.0
 40
0.0
 40
0.0
 40
0.0
 40
2.307422523030464
 40
4.359725711932623
 40
5.98418649241314
 40
7.219752182549096
 40
7.219752182549096
 40
7.219752182549096
 40
7.219752182549096
 10
192.1771790205738
 20
208.2218251367814
 30
0.0
 10
192.9510907018178
 20
208.2625440564084
 30
0.0
 10
194.4133467982399
 20
208.339479829518
 30
0.0
 10
196.2948015691449
 20
208.9655431059141
 30
0.0
 10
197.798533477557
 20
209.8662647182899
 30
0.0
 10
198.0629485490103
 20
210.8128772028052
 30
0.0
 10
198.1771790205738
 20
211.2218251367814
 30
0.0
 11
192.1771790205738
 21
208.2218251367814
 31
0.0
 11
194.4732726334822
 21
208.4501949664006
 31
0.0
 11
196.4198197076931
 21
209.1005047932218
 31
0.0
 11
197.7204393613354
 21
210.0737783303273
 31
0.0
 11
198.1771790205738
 21
211.2218251367814
 31
0.0
  0
SPLINE
  5
309
330
1F
100
AcDbEntity
  8
0
  6
Continuous
 62
     7
100
AcDbSpline
210
0.0
220
0.0
230
1.0
 70
     8
 71
     3
 72
    11
 73
     7
 74
     5
 42
0.000000001
 43
0.0000000001
 44
0.00000001
 40
0.0
 40
0.0
 40
0.0
 40
0.0
 40
2.307422523030467
 40
4.359725711932617
 40
5.984186492413083
 40
7.219752182549119
 40
7.219752182549119
 40
7.219752182549119
 40
7.219752182549119
 10
192.1771790205738
 20
207.0093895714832
 30
0.0
 10
192.9510907018178
 20
207.0501084911102
 30
0.0
 10
194.4133467982399
 20
207.1270442642198
 30
0.0
 10
196.2948015691449
 20
207.753107540616
 30
0.0
 10
197.7985334775572
 20
208.6538291529916
 30
0.0
 10
198.0629485490103
 20
209.6004416375071
 30
0.0
 10
198.1771790205738
 20
210.0093895714832
 30
0.0
 11
192.1771790205738
 21
207.0093895714832
 31
0.0
 11
194.4732726334822
 21
207.2377594011025
 31
0.0
 11
196.4198197076931
 21
207.8880692279236
 31
0.0
 11
197.7204393613354
 21
208.861342765029
 31
0.0
 11
198.1771790205738
 21
210.0093895714832
 31
0.0
  0
SPLINE
  5
30A
330
1F
100
AcDbEntity
  8
0
  6
Continuous
 62
     7
100
AcDbSpline
210
0.0
220
0.0
230
1.0
 70
     8
 71
     3
 72
    11
 73
     7
 74
     5
 42
0.000000001
 43
0.0000000001
 44
0.00000001
 40
0.0
 40
0.0
 40
0.0
 40
0.0
 40
2.307422523030373
 40
4.359725711932541
 40
5.984186492413087
 40
7.219752182549176
 40
7.219752182549176
 40
7.219752182549176
 40
7.219752182549176
 10
154.1765312089088
 20
207.0093895714832
 30
0.0
 10
153.4026195276649
 20
207.0501084911102
 30
0.0
 10
151.9403634312427
 20
207.1270442642197
 30
0.0
 10
150.0589086603378
 20
207.7531075406157
 30
0.0
 10
148.5551767519255
 20
208.6538291529916
 30
0.0
 10
148.2907616804723
 20
209.600441637507
 30
0.0
 10
148.1765312089088
 20
210.0093895714832
 30
0.0
 11
154.1765312089088
 21
207.0093895714832
 31
0.0
 11
151.8804375960005
 21
207.2377594011024
 31
0.0
 11
149.9338905217896
 21
207.8880692279235
 31
0.0
 11
148.6332708681472
 21
208.861342765029
 31
0.0
 11
148.1765312089088
 21
210.0093895714832
 31
0.0
  0
SPLINE
  5
30B
330
1F
100
AcDbEntity
  8
0
  6
Continuous
 62
     7
100
AcDbSpline
210
0.0
220
0.0
230
1.0
 70
     8
 71
     3
 72
    11
 73
     7
 74
     5
 42
0.000000001
 43
0.0000000001
 44
0.00000001
 40
0.0
 40
0.0
 40
0.0
 40
0.0
 40
2.307422523030373
 40
4.359725711932541
 40
5.984186492413121
 40
7.219752182549157
 40
7.219752182549157
 40
7.219752182549157
 40
7.219752182549157
 10
154.1765312089088
 20
208.2218251367814
 30
0.0
 10
153.4026195276649
 20
208.2625440564084
 30
0.0
 10
151.9403634312427
 20
208.339479829518
 30
0.0
 10
150.0589086603378
 20
208.9655431059139
 30
0.0
 10
148.5551767519255
 20
209.8662647182898
 30
0.0
 10
148.2907616804723
 20
210.8128772028052
 30
0.0
 10
148.1765312089088
 20
211.2218251367814
 30
0.0
 11
154.1765312089088
 21
208.2218251367814
 31
0.0
 11
151.8804375960005
 21
208.4501949664006
 31
0.0
 11
149.9338905217896
 21
209.1005047932217
 31
0.0
 11
148.6332708681472
 21
210.0737783303272
 31
0.0
 11
148.1765312089088
 21
211.2218251367814
 31
0.0
  0
SPLINE
  5
30C
330
1F
100
AcDbEntity
  8
0
  6
Continuous
 62
     7
100
AcDbSpline
210
0.0
220
0.0
230
1.0
 70
     8
 71
     3
 72
     9
 73
     5
 74
     3
 42
0.000000001
 43
0.0000000001
 44
0.00000001
 40
0.0
 40
0.0
 40
0.0
 40
0.0
 40
3.200654166305021
 40
7.078420949818849
 40
7.078420949818849
 40
7.078420949818849
 40
7.078420949818849
 10
146.9217951477153
 20
214.7411616115039
 30
0.0
 10
145.9762693872274
 20
214.2173682843634
 30
0.0
 10
143.8851876810936
 20
213.0589708416568
 30
0.0
 10
141.4891506387721
 20
212.950983669246
 30
0.0
 10
140.1765312089088
 20
212.8918251367815
 30
0.0
 11
146.9217951477153
 21
214.7411616115039
 31
0.0
 11
144.0228672152592
 21
213.3845467270938
 31
0.0
 11
140.1765312089088
 21
212.8918251367815
 31
0.0
  0
SPLINE
  5
30D
330
1F
100
AcDbEntity
  8
0
  6
Continuous
 62
     7
100
AcDbSpline
210
0.0
220
0.0
230
1.0
 70
     8
 71
     3
 72
    17
 73
    13
 74
    11
 42
0.000000001
 43
0.0000000001
 44
0.00000001
 40
0.0
 40
0.0
 40
0.0
 40
0.0
 40
0.0702086059012662
 40
0.2072305013708684
 40
0.3995540996823653
 40
0.6357176714572486
 40
0.9043306646987868
 40
1.194106935914611
 40
1.373305465430698
 40
1.515169274862228
 40
1.610833080277635
 40
1.651896591981909
 40
1.651896591981909
 40
1.651896591981909
 40
1.651896591981909
 10
146.9217951477153
 20
213.5287260462057
 30
0.0
 10
146.9407136291074
 20
213.5425024360101
 30
0.0
 10
146.9965541787424
 20
213.5831653588901
 30
0.0
 10
147.103354190095
 20
213.662744895047
 30
0.0
 10
147.2530992304429
 20
213.7772550077169
 30
0.0
 10
147.4353529354119
 20
213.9214113007096
 30
0.0
 10
147.6399194459137
 20
214.089705176331
 30
0.0
 10
147.8255772398545
 20
214.2508125209895
 30
0.0
 10
147.9769464344672
 20
214.3872754413482
 30
0.0
 10
148.0757175745559
 20
214.4844975392809
 30
0.0
 10
148.1439684730897
 20
214.5484892429669
 30
0.0
 10
148.1690103429347
 20
214.5866775615178
 30
0.0
 10
148.1765312089088
 20
214.5981467105345
 30
0.0
 11
146.9217951477153
 21
213.5287260462057
 31
0.0
 11
146.97849914005
 21
213.5701253840884
 31
0.0
 11
147.0884295669448
 21
213.6519196455128
 31
0.0
 11
147.2412012323805
 21
213.7687493708776
 31
0.0
 11
147.4264289403381
 21
213.915255100581
 31
0.0
 11
147.6337274947985
 21
214.0860773750217
 31
0.0
 11
147.8527116997427
 21
214.2758567345979
 31
0.0
 11
147.9851191155698
 21
214.396606016976
 31
0.0
 11
148.0873429493247
 21
214.4949707881565
 31
0.0
 11
148.1532060355801
 21
214.5643510265419
 31
0.0
 11
148.1765312089088
 21
214.5981467105345
 31
0.0
  0
SPLINE
  5
30E
330
1F
100
AcDbEntity
  8
0
  6
Continuous
 62
     7
100
AcDbSpline
210
0.0
220
0.0
230
1.0
 70
     8
 71
     3
 72
     9
 73
     5
 74
     3
 42
0.000000001
 43
0.0000000001
 44
0.00000001
 40
0.0
 40
0.0
 40
0.0
 40
0.0
 40
3.200654166305021
 40
7.07842094981886
 40
7.07842094981886
 40
7.07842094981886
 40
7.07842094981886
 10
146.9217951477153
 20
213.5287260462057
 30
0.0
 10
145.9762693872274
 20
213.0049327190652
 30
0.0
 10
143.8851876810935
 20
211.8465352763587
 30
0.0
 10
141.4891506387722
 20
211.7385481039477
 30
0.0
 10
140.1765312089088
 20
211.6793895714832
 30
0.0
 11
146.9217951477153
 21
213.5287260462057
 31
0.0
 11
144.0228672152592
 21
212.1721111617956
 31
0.0
 11
140.1765312089088
 21
211.6793895714832
 31
0.0
  0
SPLINE
  5
30F
330
1F
100
AcDbEntity
  8
0
  6
Continuous
 62
     7
100
AcDbSpline
210
0.0
220
0.0
230
1.0
 70
     8
 71
     3
 72
    17
 73
    13
 74
    11
 42
0.000000001
 43
0.0000000001
 44
0.00000001
 40
0.0
 40
0.0
 40
0.0
 40
0.0
 40
0.0451642818542788
 40
0.1476992964929852
 40
0.2985728026503529
 40
0.4882794280322739
 40
0.8055305592667072
 40
1.098596800521207
 40
1.355073438250293
 40
1.562432993467597
 40
1.708064074677768
 40
1.77929635028091
 40
1.77929635028091
 40
1.77929635028091
 40
1.77929635028091
 10
198.1771790205738
 20
215.9977308920903
 30
0.0
 10
198.1844868645724
 20
215.9845365057579
 30
0.0
 10
198.2083854535351
 20
215.941387318564
 30
0.0
 10
198.2754760543785
 20
215.8669552828692
 30
0.0
 10
198.371858749539
 20
215.7554370158828
 30
0.0
 10
198.5222913165973
 20
215.5956432041808
 30
0.0
 10
198.7088547504667
 20
215.4051548841429
 30
0.0
 10
198.9165592415927
 20
215.2042348754541
 30
0.0
 10
199.1013684450064
 20
215.0324624681093
 30
0.0
 10
199.2525082780663
 20
214.8966966451571
 30
0.0
 10
199.3589227134447
 20
214.8035659422765
 30
0.0
 10
199.4138675619713
 20
214.7565912223731
 30
0.0
 10
199.4319150817672
 20
214.741161611504
 30
0.0
 11
198.1771790205738
 21
215.9977308920903
 31
0.0
 11
198.1999712162835
 21
215.9587395065716
 31
0.0
 11
198.2643157831248
 21
215.878907145447
 31
0.0
 11
198.3641585169417
 21
215.765795504434
 31
0.0
 11
198.4934452135778
 21
215.6269662792505
 31
0.0
 11
198.7155544162716
 21
215.4004364085498
 31
0.0
 11
198.9260367544322
 21
215.196512385763
 31
0.0
 11
199.1139031090607
 21
215.0219085527775
 31
0.0
 11
199.2681643611586
 21
214.883339251481
 31
0.0
 11
199.377831391727
 21
214.7875188237606
 31
0.0
 11
199.4319150817672
 21
214.741161611504
 31
0.0
  0
SPLINE
  5
310
330
1F
100
AcDbEntity
  8
0
  6
Continuous
 62
     7
100
AcDbSpline
210
0.0
220
0.0
230
1.0
 70
     8
 71
     3
 72
    17
 73
    13
 74
    11
 42
0.000000001
 43
0.0000000001
 44
0.00000001
 40
0.0
 40
0.0
 40
0.0
 40
0.0
 40
0.0410635921785741
 40
0.1367276061330053
 40
0.2785917323659072
 40
0.4577906671258615
 40
0.7475664603414488
 40
1.016178998063813
 40
1.252342212325407
 40
1.444665627343024
 40
1.581687590343394
 40
1.651896591438652
 40
1.651896591438652
 40
1.651896591438652
 40
1.651896591438652
 10
198.1771790205738
 20
214.5981467105346
 30
0.0
 10
198.1846999040579
 20
214.5866775409095
 30
0.0
 10
198.2097418360629
 20
214.5484891478567
 30
0.0
 10
198.2779928874965
 20
214.4844973111087
 30
0.0
 10
198.3767642584448
 20
214.387275005965
 30
0.0
 10
198.5281335274226
 20
214.2508120465841
 30
0.0
 10
198.713791199985
 20
214.0897048306229
 30
0.0
 10
198.9183573816605
 20
213.9214112329834
 30
0.0
 10
199.1006108255593
 20
213.7772551453155
 30
0.0
 10
199.2503557381349
 20
213.6627451252893
 30
0.0
 10
199.3571558219901
 20
213.5831655305631
 30
0.0
 10
199.4129964944995
 20
213.5425025143986
 30
0.0
 10
199.4319150817672
 20
213.5287260462058
 30
0.0
 11
198.1771790205738
 21
214.5981467105346
 31
0.0
 11
198.2005042471758
 21
214.5643509655299
 31
0.0
 11
198.2663674851336
 21
214.4949705836158
 31
0.0
 11
198.3685915568337
 21
214.3966056028177
 31
0.0
 11
198.5009992846626
 21
214.2758560611607
 31
0.0
 11
198.7199831426776
 21
214.0860770311308
 31
0.0
 11
198.9272813498716
 21
213.9152550515613
 31
0.0
 11
199.1125087768112
 21
213.7687495428682
 31
0.0
 11
199.2652802940627
 21
213.6519199254674
 31
0.0
 11
199.3752107721926
 21
213.5701256197746
 31
0.0
 11
199.4319150817672
 21
213.5287260462058
 31
0.0
  0
SPLINE
  5
311
330
1F
100
AcDbEntity
  8
0
  6
Continuous
 62
     7
100
AcDbSpline
210
0.0
220
0.0
230
1.0
 70
     8
 71
     3
 72
     9
 73
     5
 74
     3
 42
0.000000001
 43
0.0000000001
 44
0.00000001
 40
0.0
 40
0.0
 40
0.0
 40
0.0
 40
3.200654166305199
 40
7.078420949818975
 40
7.078420949818975
 40
7.078420949818975
 40
7.078420949818975
 10
199.4319150817672
 20
214.741161611504
 30
0.0
 10
200.3774408422552
 20
214.2173682843635
 30
0.0
 10
202.468522548389
 20
213.0589708416568
 30
0.0
 10
204.8645595907104
 20
212.9509836692461
 30
0.0
 10
206.1771790205738
 20
212.8918251367815
 30
0.0
 11
199.4319150817672
 21
214.741161611504
 31
0.0
 11
202.3308430142235
 21
213.3845467270939
 31
0.0
 11
206.1771790205738
 21
212.8918251367815
 31
0.0
  0
SPLINE
  5
312
330
1F
100
AcDbEntity
  8
0
  6
Continuous
 62
     7
100
AcDbSpline
210
0.0
220
0.0
230
1.0
 70
     8
 71
     3
 72
     9
 73
     5
 74
     3
 42
0.000000001
 43
0.0000000001
 44
0.00000001
 40
0.0
 40
0.0
 40
0.0
 40
0.0
 40
3.200654166305199
 40
7.078420949818975
 40
7.078420949818975
 40
7.078420949818975
 40
7.078420949818975
 10
199.4319150817672
 20
213.5287260462058
 30
0.0
 10
200.3774408422552
 20
213.0049327190653
 30
0.0
 10
202.468522548389
 20
211.8465352763587
 30
0.0
 10
204.8645595907104
 20
211.7385481039478
 30
0.0
 10
206.1771790205738
 20
211.6793895714833
 30
0.0
 11
199.4319150817672
 21
213.5287260462058
 31
0.0
 11
202.3308430142235
 21
212.1721111617957
 31
0.0
 11
206.1771790205738
 21
211.6793895714833
 31
0.0
  0
SPLINE
  5
313
330
1F
100
AcDbEntity
  8
0
  6
Continuous
 62
     7
100
AcDbSpline
210
0.0
220
0.0
230
1.0
 70
     8
 71
     3
 72
    17
 73
    13
 74
    11
 42
0.000000001
 43
0.0000000001
 44
0.00000001
 40
0.0
 40
0.0
 40
0.0
 40
0.0
 40
0.0451643530520372
 40
0.1476995486515036
 40
0.2985733274880297
 40
0.4882802991723444
 40
0.8055309746700716
 40
1.09859678617298
 40
1.355073093354189
 40
1.562432491135356
 40
1.708063662320047
 40
1.779296349840211
 40
1.779296349840211
 40
1.779296349840211
 40
1.779296349840211
 10
148.1765312089088
 20
215.9977308920903
 30
0.0
 10
148.1692233509479
 20
215.984536486349
 30
0.0
 10
148.1453247131982
 20
215.9413872300378
 30
0.0
 10
148.0782339897256
 20
215.8669550686155
 30
0.0
 10
147.9818511111842
 20
215.7554366080399
 30
0.0
 10
147.8314184935225
 20
215.5956427692221
 30
0.0
 10
147.6448551747764
 20
215.4051545879685
 30
0.0
 10
147.4371509725351
 20
215.2042348638995
 30
0.0
 10
147.2523419947373
 20
215.0324626632068
 30
0.0
 10
147.1012022636934
 20
214.896696925231
 30
0.0
 10
146.9947877444449
 20
214.8035661438618
 30
0.0
 10
146.9398427711045
 20
214.7565913124995
 30
0.0
 10
146.9217951477153
 20
214.7411616115039
 30
0.0
 11
148.1765312089088
 21
215.9977308920903
 31
0.0
 11
148.1537389705861
 21
215.9587394490115
 31
0.0
 11
148.0893942826421
 21
215.8789069530729
 31
0.0
 11
147.9895513593433
 21
215.7657951156021
 31
0.0
 11
147.8602644149559
 21
215.626965647927
 31
0.0
 11
147.6381555179284
 21
215.4004361157762
 31
0.0
 11
147.4276734852303
 21
215.196512395314
 31
0.0
 11
147.2398073743608
 21
215.0219087855979
 31
0.0
 11
147.085546242819
 21
214.8833395856857
 31
0.0
 11
146.9758791481041
 21
214.7875190946351
 31
0.0
 11
146.9217951477153
 21
214.7411616115039
 31
0.0
  0
SPLINE
  5
314
330
1F
100
AcDbEntity
  8
0
  6
Continuous
 62
     7
100
AcDbSpline
210
0.0
220
0.0
230
1.0
 70
     8
 71
     3
 72
    15
 73
    11
 74
     9
 42
0.000000001
 43
0.0000000001
 44
0.00000001
 40
0.0
 40
0.0
 40
0.0
 40
0.0
 40
0.2191827909812405
 40
0.4251230264212964
 40
0.6200199956077886
 40
0.8059624624651518
 40
0.9849960253137271
 40
1.159157687459033
 40
1.330522211736543
 40
1.501231740389499
 40
1.501231740389499
 40
1.501231740389499
 40
1.501231740389499
 10
247.4938424128492
 20
226.7089024383592
 30
0.0
 10
247.5292463169623
 20
226.7728287105148
 30
0.0
 10
247.5979150844515
 20
226.8968189729369
 30
0.0
 10
247.686711344411
 20
227.0835912303871
 30
0.0
 10
247.7613748851436
 20
227.2644774772533
 30
0.0
 10
247.8217880733722
 20
227.4411858620273
 30
0.0
 10
247.8687257386953
 20
227.6148206204361
 30
0.0
 10
247.9019807450147
 20
227.7866005549872
 30
0.0
 10
247.922960578253
 20
227.9576573418595
 30
0.0
 10
247.9255585989696
 20
228.0717115931307
 30
0.0
 10
247.9268551147413
 20
228.1286295248092
 30
0.0
 11
247.4938424128492
 21
226.7089024383592
 31
0.0
 11
247.597984808628
 21
226.9017636753871
 31
0.0
 11
247.6866029381409
 21
227.0876620553255
 31
0.0
 11
247.7605855505387
 21
227.267971239274
 31
0.0
 11
247.8205589613449
 21
227.4439763279278
 31
0.0
 11
247.8670022996917
 21
227.6168810221191
 31
0.0
 11
247.9001604284524
 21
227.7878571123865
 31
0.0
 11
247.9201504051034
 21
227.9580517112342
 31
0.0
 11
247.9268551147413
 21
228.1286295248092
 31
0.0
  0
SPLINE
  5
315
330
1F
100
AcDbEntity
  8
0
  6
Continuous
 62
     7
100
AcDbSpline
210
0.0
220
0.0
230
1.0
 70
     8
 71
     3
 72
    15
 73
    11
 74
     9
 42
0.000000001
 43
0.0000000001
 44
0.00000001
 40
0.0
 40
0.0
 40
0.0
 40
0.0
 40
0.2191827909812676
 40
0.425123026421299
 40
0.6200199956077912
 40
0.8059624624651544
 40
0.9849960253136747
 40
1.159157687459036
 40
1.330522211736638
 40
1.501231740389592
 40
1.501231740389592
 40
1.501231740389592
 40
1.501231740389592
 10
247.4938424128492
 20
218.0486484005148
 30
0.0
 10
247.5292463169623
 20
218.1125746726703
 30
0.0
 10
247.5979150844517
 20
218.2365649350925
 30
0.0
 10
247.686711344411
 20
218.4233371925428
 30
0.0
 10
247.7613748851437
 20
218.6042234394089
 30
0.0
 10
247.8217880733723
 20
218.7809318241829
 30
0.0
 10
247.8687257386952
 20
218.9545665825916
 30
0.0
 10
247.9019807450147
 20
219.1263465171428
 30
0.0
 10
247.9229605782531
 20
219.2974033040152
 30
0.0
 10
247.9255585989695
 20
219.4114575552863
 30
0.0
 10
247.9268551147413
 20
219.4683754869649
 30
0.0
 11
247.4938424128492
 21
218.0486484005148
 31
0.0
 11
247.597984808628
 21
218.2415096375427
 31
0.0
 11
247.6866029381409
 21
218.4274080174811
 31
0.0
 11
247.7605855505387
 21
218.6077172014296
 31
0.0
 11
247.8205589613449
 21
218.7837222900834
 31
0.0
 11
247.8670022996917
 21
218.9566269842746
 31
0.0
 11
247.9001604284524
 21
219.1276030745421
 31
0.0
 11
247.9201504051035
 21
219.2977976733899
 31
0.0
 11
247.9268551147413
 21
219.4683754869649
 31
0.0
  0
SPLINE
  5
316
330
1F
100
AcDbEntity
  8
0
  6
Continuous
 62
     7
100
AcDbSpline
210
0.0
220
0.0
230
1.0
 70
     8
 71
     3
 72
    15
 73
    11
 74
     9
 42
0.000000001
 43
0.0000000001
 44
0.00000001
 40
0.0
 40
0.0
 40
0.0
 40
0.0
 40
0.3412208375970373
 40
0.6821971923785504
 40
1.025751435788117
 40
1.374667448352179
 40
1.731747359233853
 40
2.099879146106183
 40
2.482087745868633
 40
2.88162520017395
 40
2.88162520017395
 40
2.88162520017395
 40
2.88162520017395
 10
247.9268551147413
 20
223.7985025058871
 30
0.0
 10
247.9255635214056
 20
223.9122502359166
 30
0.0
 10
247.9229812455325
 20
224.1396641960773
 30
0.0
 10
247.9020940885636
 20
224.4810735419297
 30
0.0
 10
247.8689652191397
 20
224.8240207516947
 30
0.0
 10
247.8221787134008
 20
225.1708113058458
 30
0.0
 10
247.7619402540305
 20
225.5238234711549
 30
0.0
 10
247.6874029080511
 20
225.8854166568034
 30
0.0
 10
247.5988826546845
 20
226.2584354245509
 30
0.0
 10
247.5293694612609
 20
226.5095937979083
 30
0.0
 10
247.4938424128492
 20
226.6379566787872
 30
0.0
 11
247.9268551147413
 21
223.7985025058871
 31
0.0
 11
247.9201510133646
 21
224.1396574785902
 31
0.0
 11
247.9001604284524
 21
224.4800473307327
 31
0.0
 11
247.8670029431675
 21
224.821997765263
 31
0.0
 11
247.8205589613449
 21
225.16780889965
 31
0.0
 11
247.760586338555
 21
225.5198164954602
 31
0.0
 11
247.6866029381409
 21
225.8804374448545
 31
0.0
 11
247.5979858261152
 21
226.2522309645157
 31
0.0
 11
247.4938424128492
 21
226.6379566787872
 31
0.0
  0
SPLINE
  5
317
330
1F
100
AcDbEntity
  8
0
  6
Continuous
 62
     7
100
AcDbSpline
210
0.0
220
0.0
230
1.0
 70
     8
 71
     3
 72
    15
 73
    11
 74
     9
 42
0.000000001
 43
0.0000000001
 44
0.00000001
 40
0.0
 40
0.0
 40
0.0
 40
0.0
 40
0.170709528652954
 40
0.3420740529305273
 40
0.5162357150758891
 40
0.6952692779244368
 40
0.8812117447818
 40
1.076108713968266
 40
1.282048949408324
 40
1.501231740389569
 40
1.501231740389569
 40
1.501231740389569
 40
1.501231740389569
 10
247.9268551147413
 20
228.1286295248092
 30
0.0
 10
247.9255585989696
 20
228.1855474564877
 30
0.0
 10
247.9229605782531
 20
228.2996017077589
 30
0.0
 10
247.9019807450147
 20
228.4706584946313
 30
0.0
 10
247.8687257386952
 20
228.6424384291824
 30
0.0
 10
247.8217880733723
 20
228.8160731875913
 30
0.0
 10
247.7613748851435
 20
228.9927815723652
 30
0.0
 10
247.686711344411
 20
229.1736678192313
 30
0.0
 10
247.5979150844518
 20
229.3604400766816
 30
0.0
 10
247.5292463169623
 20
229.4844303391038
 30
0.0
 10
247.4938424128492
 20
229.5483566112593
 30
0.0
 11
247.9268551147413
 21
228.1286295248092
 31
0.0
 11
247.9201504051035
 21
228.2992073383843
 31
0.0
 11
247.9001604284524
 21
228.469401937232
 31
0.0
 11
247.8670022996917
 21
228.6403780274995
 31
0.0
 11
247.8205589613449
 21
228.8132827216907
 31
0.0
 11
247.7605855505387
 21
228.9892878103445
 31
0.0
 11
247.6866029381409
 21
229.169596994293
 31
0.0
 11
247.5979848086281
 21
229.3554953742315
 31
0.0
 11
247.4938424128492
 21
229.5483566112593
 31
0.0
  0
SPLINE
  5
318
330
1F
100
AcDbEntity
  8
0
  6
Continuous
 62
     7
100
AcDbSpline
210
0.0
220
0.0
230
1.0
 70
     8
 71
     3
 72
    15
 73
    11
 74
     9
 42
0.000000001
 43
0.0000000001
 44
0.00000001
 40
0.0
 40
0.0
 40
0.0
 40
0.0
 40
0.3995374543053452
 40
0.7817460540676837
 40
1.149877840940153
 40
1.506957751821883
 40
1.855873764385829
 40
2.199428007795426
 40
2.540404362576996
 40
2.881625200174033
 40
2.881625200174033
 40
2.881625200174033
 40
2.881625200174033
 10
247.4938424128492
 20
220.9590483329869
 30
0.0
 10
247.5293694612609
 20
221.0874112138657
 30
0.0
 10
247.5988826546844
 20
221.3385695872232
 30
0.0
 10
247.6874029080512
 20
221.7115883549706
 30
0.0
 10
247.7619402540304
 20
222.0731815406193
 30
0.0
 10
247.8221787134009
 20
222.4261937059282
 30
0.0
 10
247.8689652191396
 20
222.7729842600795
 30
0.0
 10
247.9020940885637
 20
223.1159314698444
 30
0.0
 10
247.9229812455324
 20
223.4573408156968
 30
0.0
 10
247.9255635214056
 20
223.6847547758576
 30
0.0
 10
247.9268551147413
 20
223.7985025058871
 30
0.0
 11
247.4938424128492
 21
220.9590483329869
 31
0.0
 11
247.5979858261152
 21
221.3447740472584
 31
0.0
 11
247.6866029381409
 21
221.7165675669195
 31
0.0
 11
247.760586338555
 21
222.0771885163139
 31
0.0
 11
247.8205589613449
 21
222.4291961121242
 31
0.0
 11
247.8670029431675
 21
222.7750072465111
 31
0.0
 11
247.9001604284524
 21
223.1169576810414
 31
0.0
 11
247.9201510133646
 21
223.457347533184
 31
0.0
 11
247.9268551147413
 21
223.7985025058871
 31
0.0
  0
SPLINE
  5
319
330
1F
100
AcDbEntity
  8
0
  6
Continuous
 62
     7
100
AcDbSpline
210
0.0
220
0.0
230
1.0
 70
     8
 71
     3
 72
    15
 73
    11
 74
     9
 42
0.000000001
 43
0.0000000001
 44
0.00000001
 40
0.0
 40
0.0
 40
0.0
 40
0.0
 40
0.170709528652954
 40
0.3420740529305555
 40
0.5162357150758335
 40
0.6952692779243265
 40
0.8812117447817165
 40
1.076108713968288
 40
1.282048949408319
 40
1.501231740389587
 40
1.501231740389587
 40
1.501231740389587
 40
1.501231740389587
 10
247.9268551147413
 20
219.4683754869649
 30
0.0
 10
247.9255585989695
 20
219.5252934186434
 30
0.0
 10
247.9229605782531
 20
219.6393476699147
 30
0.0
 10
247.9019807450147
 20
219.8104044567869
 30
0.0
 10
247.8687257386952
 20
219.9821843913381
 30
0.0
 10
247.8217880733723
 20
220.1558191497468
 30
0.0
 10
247.7613748851436
 20
220.3325275345209
 30
0.0
 10
247.686711344411
 20
220.513413781387
 30
0.0
 10
247.5979150844517
 20
220.7001860388373
 30
0.0
 10
247.5292463169622
 20
220.8241763012595
 30
0.0
 10
247.4938424128492
 20
220.888102573415
 30
0.0
 11
247.9268551147413
 21
219.4683754869649
 31
0.0
 11
247.9201504051035
 21
219.63895330054
 31
0.0
 11
247.9001604284524
 21
219.8091478993877
 31
0.0
 11
247.8670022996917
 21
219.9801239896551
 31
0.0
 11
247.8205589613449
 21
220.1530286838463
 31
0.0
 11
247.7605855505387
 21
220.3290337725001
 31
0.0
 11
247.6866029381409
 21
220.5093429564487
 31
0.0
 11
247.597984808628
 21
220.6952413363871
 31
0.0
 11
247.4938424128492
 21
220.888102573415
 31
0.0
  0
SPLINE
  5
31A
330
1F
100
AcDbEntity
  8
0
  6
Continuous
 62
     7
100
AcDbSpline
210
0.0
220
0.0
230
1.0
 70
     8
 71
     3
 72
    11
 73
     7
 74
     5
 42
0.000000001
 43
0.0000000001
 44
0.00000001
 40
0.0
 40
0.0
 40
0.0
 40
0.0
 40
3.196401440010232
 40
6.532112407542886
 40
10.05545974901976
 40
13.70566001880779
 40
13.70566001880779
 40
13.70566001880779
 40
13.70566001880779
 10
243.6768551147413
 20
219.8200283670569
 30
0.0
 10
243.5300591195027
 20
218.7457317600559
 30
0.0
 10
243.2300692702021
 20
216.5503172239064
 30
0.0
 10
240.9992378562301
 20
213.8625399059644
 30
0.0
 10
237.9084323714807
 20
212.031900036728
 30
0.0
 10
235.5015680735246
 20
211.7982701808504
 30
0.0
 10
234.2768551147414
 20
211.6793895714832
 30
0.0
 11
243.6768551147413
 21
219.8200283670569
 31
0.0
 11
242.9612963152678
 21
216.7047502431384
 31
0.0
 11
240.9236588578948
 21
214.0637274715164
 31
0.0
 11
237.8740684416311
 21
212.2990816697288
 31
0.0
 11
234.2768551147414
 21
211.6793895714832
 31
0.0
  0
SPLINE
  5
31B
330
1F
100
AcDbEntity
  8
0
  6
Continuous
 62
     7
100
AcDbSpline
210
0.0
220
0.0
230
1.0
 70
     8
 71
     3
 72
    11
 73
     7
 74
     5
 42
0.000000001
 43
0.0000000001
 44
0.00000001
 40
0.0
 40
0.0
 40
0.0
 40
0.0
 40
3.65020026978803
 40
7.173547611264907
 40
10.50925857879754
 40
13.7056600188078
 40
13.7056600188078
 40
13.7056600188078
 40
13.7056600188078
 10
234.2768551147414
 20
202.6793895714833
 30
0.0
 10
235.5015680735246
 20
202.7982701808505
 30
0.0
 10
237.9084323714807
 20
203.031900036728
 30
0.0
 10
240.9992378562302
 20
204.8625399059646
 30
0.0
 10
243.2300692702021
 20
207.5503172239065
 30
0.0
 10
243.5300591195026
 20
209.7457317600558
 30
0.0
 10
243.6768551147413
 20
210.820028367057
 30
0.0
 11
234.2768551147414
 21
202.6793895714833
 31
0.0
 11
237.8740684416311
 21
203.2990816697289
 31
0.0
 11
240.9236588578948
 21
205.0637274715166
 31
0.0
 11
242.9612963152678
 21
207.7047502431385
 31
0.0
 11
243.6768551147413
 21
210.820028367057
 31
0.0
  0
SPLINE
  5
31C
330
1F
100
AcDbEntity
  8
0
  6
Continuous
 62
     7
100
AcDbSpline
210
0.0
220
0.0
230
1.0
 70
     8
 71
     3
 72
    11
 73
     7
 74
     5
 42
0.000000001
 43
0.0000000001
 44
0.00000001
 40
0.0
 40
0.0
 40
0.0
 40
0.0
 40
0.40178164004255
 40
0.8053487720825407
 40
1.426368968874664
 40
2.051529676526121
 40
2.051529676526121
 40
2.051529676526121
 40
2.051529676526121
 10
220.1768551147413
 20
143.5664516983182
 30
0.0
 10
220.1902810775347
 20
143.7003421091366
 30
0.0
 10
220.2171926814325
 20
143.9687179289683
 30
0.0
 10
220.4043820666459
 20
144.4128927538685
 30
0.0
 10
220.7389557151958
 20
144.8542935456919
 30
0.0
 10
221.0305656807334
 20
145.1501052383702
 30
0.0
 10
221.1768551147413
 20
145.2985025058871
 30
0.0
 11
220.1768551147413
 21
143.5664516983182
 31
0.0
 11
220.236740342422
 21
143.9637453526951
 31
0.0
 11
220.3872209364932
 21
144.3382076644523
 31
0.0
 11
220.7477717406091
 21
144.8438450903508
 31
0.0
 11
221.1768551147413
 21
145.2985025058871
 31
0.0
  0
SPLINE
  5
31D
330
1F
100
AcDbEntity
  8
0
  6
Continuous
 62
     7
100
AcDbSpline
210
0.0
220
0.0
230
1.0
 70
     8
 71
     3
 72
    11
 73
     7
 74
     5
 42
0.000000001
 43
0.0000000001
 44
0.00000001
 40
0.0
 40
0.0
 40
0.0
 40
0.0
 40
0.6251607076514089
 40
1.246180904443623
 40
1.649748036483603
 40
2.051529676526144
 40
2.051529676526144
 40
2.051529676526144
 40
2.051529676526144
 10
125.1768551147413
 20
145.2985025058871
 30
0.0
 10
125.3231445487492
 20
145.1501052383702
 30
0.0
 10
125.6147545142867
 20
144.8542935456919
 30
0.0
 10
125.9493281628368
 20
144.4128927538685
 30
0.0
 10
126.1365175480502
 20
143.9687179289683
 30
0.0
 10
126.1634291519479
 20
143.7003421091366
 30
0.0
 10
126.1768551147413
 20
143.5664516983182
 30
0.0
 11
125.1768551147413
 21
145.2985025058871
 31
0.0
 11
125.6059384888734
 21
144.8438450903508
 31
0.0
 11
125.9664892929895
 21
144.3382076644523
 31
0.0
 11
126.1169698870607
 21
143.9637453526951
 31
0.0
 11
126.1768551147413
 21
143.5664516983182
 31
0.0
  0
SPLINE
  5
31E
330
1F
100
AcDbEntity
  8
0
  6
Continuous
 62
     7
100
AcDbSpline
210
0.0
220
0.0
230
1.0
 70
    24
 71
     3
 72
     9
 73
     5
 74
     3
 42
0.000000001
 43
0.0000000001
 44
0.00000001
 40
0.0
 40
0.0
 40
0.0
 40
0.0
 40
0.0028142600132242
 40
0.0056285200265052
 40
0.0056285200265052
 40
0.0056285200265052
 40
0.0056285200265052
 10
100.1768551147413
 20
284.8085530122259
 30
0.0
 10
100.1768551147413
 20
284.8094910988969
 30
0.0
 10
100.1768551147413
 20
284.8113672722392
 30
0.0
 10
100.1768551147413
 20
284.8132434455813
 30
0.0
 10
100.1768551147413
 20
284.8141815322524
 30
0.0
 11
100.1768551147413
 21
284.8085530122259
 31
0.0
 11
100.1768551147413
 21
284.8113672722392
 31
0.0
 11
100.1768551147413
 21
284.8141815322524
 31
0.0
  0
SPLINE
  5
31F
330
1F
100
AcDbEntity
  8
0
  6
Continuous
 62
     7
100
AcDbSpline
210
0.0
220
0.0
230
1.0
 70
    24
 71
     3
 72
     9
 73
     5
 74
     3
 42
0.000000001
 43
0.0000000001
 44
0.00000001
 40
0.0
 40
0.0
 40
0.0
 40
0.0
 40
0.0028142600132242
 40
0.0056285200263915
 40
0.0056285200263915
 40
0.0056285200263915
 40
0.0056285200263915
 10
100.1768551147413
 20
293.8029244921995
 30
0.0
 10
100.1768551147413
 20
293.8038625788706
 30
0.0
 10
100.1768551147413
 20
293.8057387522127
 30
0.0
 10
100.1768551147413
 20
293.8076149255548
 30
0.0
 10
100.1768551147413
 20
293.8085530122259
 30
0.0
 11
100.1768551147413
 21
293.8029244921995
 31
0.0
 11
100.1768551147413
 21
293.8057387522127
 31
0.0
 11
100.1768551147413
 21
293.8085530122259
 31
0.0
  0
SPLINE
  5
320
330
1F
100
AcDbEntity
  8
0
  6
Continuous
 62
     7
100
AcDbSpline
210
0.0
220
0.0
230
1.0
 70
     8
 71
     3
 72
    11
 73
     7
 74
     5
 42
0.000000001
 43
0.0000000001
 44
0.00000001
 40
0.0
 40
0.0
 40
0.0
 40
0.0
 40
2.720341650625958
 40
5.559244601070256
 40
8.557838082670116
 40
11.66439150363947
 40
11.66439150363947
 40
11.66439150363947
 40
11.66439150363947
 10
104.0768551147413
 20
219.8200283670569
 30
0.0
 10
104.201787876626
 20
218.9057333825252
 30
0.0
 10
104.4570983886885
 20
217.0372954803092
 30
0.0
 10
106.3556783141355
 20
214.7498254224587
 30
0.0
 10
108.9861510671253
 20
213.1918340454533
 30
0.0
 10
111.0345462136918
 20
212.9930001234726
 30
0.0
 10
112.0768551147413
 20
212.8918251367813
 30
0.0
 11
104.0768551147413
 21
219.8200283670569
 31
0.0
 11
104.6858413270592
 21
217.1687278360625
 31
0.0
 11
106.4200008652489
 21
214.9210488814905
 31
0.0
 11
109.0153969641968
 21
213.4192226672031
 31
0.0
 11
112.0768551147413
 21
212.8918251367813
 31
0.0
  0
SPLINE
  5
321
330
1F
100
AcDbEntity
  8
0
  6
Continuous
 62
     7
100
AcDbSpline
210
0.0
220
0.0
230
1.0
 70
     8
 71
     3
 72
    11
 73
     7
 74
     5
 42
0.000000001
 43
0.0000000001
 44
0.00000001
 40
0.0
 40
0.0
 40
0.0
 40
0.0
 40
3.196401440010294
 40
6.532112407542884
 40
10.05545974901979
 40
13.70566001880789
 40
13.70566001880789
 40
13.70566001880789
 40
13.70566001880789
 10
102.6768551147413
 20
210.820028367057
 30
0.0
 10
102.8236511099799
 20
209.7457317600559
 30
0.0
 10
103.1236409592805
 20
207.5503172239065
 30
0.0
 10
105.3544723732524
 20
204.8625399059645
 30
0.0
 10
108.445277858002
 20
203.0319000367281
 30
0.0
 10
110.8521421559581
 20
202.7982701808505
 30
0.0
 10
112.0768551147413
 20
202.6793895714833
 30
0.0
 11
102.6768551147413
 21
210.820028367057
 31
0.0
 11
103.3924139142148
 21
207.7047502431385
 31
0.0
 11
105.4300513715878
 21
205.0637274715166
 31
0.0
 11
108.4796417878515
 21
203.2990816697289
 31
0.0
 11
112.0768551147413
 21
202.6793895714833
 31
0.0
  0
SPLINE
  5
322
330
1F
100
AcDbEntity
  8
0
  6
Continuous
 62
     7
100
AcDbSpline
210
0.0
220
0.0
230
1.0
 70
     8
 71
     3
 72
    11
 73
     7
 74
     5
 42
0.000000001
 43
0.0000000001
 44
0.00000001
 40
0.0
 40
0.0
 40
0.0
 40
0.0
 40
3.6502002697881
 40
7.173547611265043
 40
10.50925857879769
 40
13.70566001880795
 40
13.70566001880795
 40
13.70566001880795
 40
13.70566001880795
 10
112.0768551147413
 20
211.6793895714831
 30
0.0
 10
110.8521421559581
 20
211.7982701808504
 30
0.0
 10
108.445277858002
 20
212.0319000367278
 30
0.0
 10
105.3544723732525
 20
213.8625399059644
 30
0.0
 10
103.1236409592805
 20
216.5503172239064
 30
0.0
 10
102.82365110998
 20
218.7457317600558
 30
0.0
 10
102.6768551147413
 20
219.8200283670569
 30
0.0
 11
112.0768551147413
 21
211.6793895714831
 31
0.0
 11
108.4796417878515
 21
212.2990816697287
 31
0.0
 11
105.4300513715878
 21
214.0637274715164
 31
0.0
 11
103.3924139142148
 21
216.7047502431384
 31
0.0
 11
102.6768551147413
 21
219.8200283670569
 31
0.0
  0
DIMENSION
  5
32E
330
1F
100
AcDbEntity
  8
1
100
AcDbDimension
  2
*D2
 10
343.8268551131013
 20
354.3085530122259
 30
0.0
 11
427.8281523663005
 21
361.3085530122259
 31
0.0
 70
    32
  1
170
 71
     5
 42
-1.0
 53
0.00013888888889
  3
ME10_DIM_10
100
AcDbAlignedDimension
 13
511.8294496194997
 23
223.7985025058871
 33
0.0
 14
343.8268551131013
 24
328.4149989007607
 34
0.0
100
AcDbRotatedDimension
  0
DIMENSION
  5
339
330
1F
100
AcDbEntity
  8
1
100
AcDbDimension
  2
*D3
 10
357.8268551131013
 20
97.2985025058871
 30
0.0
 11
417.8268551131012
 21
104.2985025058871
 31
0.0
 70
    32
  1
<>
 71
     5
 42
-1.0
 53
0.00013888888889
  3
ME10_DIM_11
100
AcDbAlignedDimension
 13
477.8268551131011
 23
137.298502505887
 33
0.0
 14
357.8268551131013
 24
137.298502505887
 34
0.0
100
AcDbRotatedDimension
  0
DIMENSION
  5
344
330
1F
100
AcDbEntity
  8
1
100
AcDbDimension
  2
*D4
 10
102.6768551147413
 20
97.2985025058871
 30
0.0
 11
173.1768551147413
 21
104.2985025058871
 31
0.0
 70
    32
  1
<>
 71
     5
 42
-1.0
 53
0.00013888888889
  3
ME10_DIM_12
100
AcDbAlignedDimension
 13
243.6768551147413
 23
137.2985025058871
 33
0.0
 14
102.6768551147413
 24
137.2985025058871
 34
0.0
100
AcDbRotatedDimension
  0
DIMENSION
  5
351
330
1F
100
AcDbEntity
  8
1
100
AcDbDimension
  2
*D5
 10
497.8268551131012
 20
137.298502505887
 30
0.0
 11
490.8268551131012
 21
140.798502505887
 31
0.0
 70
    32
  1
<>
 71
     5
 42
-1.0
 53
90.0
  3
ME10_DIM_13
100
AcDbAlignedDimension
 13
476.8268551131011
 23
144.2985025058871
 33
0.0
 14
477.8268551131011
 24
137.298502505887
 34
0.0
 50
90.0
100
AcDbRotatedDimension
  0
DIMENSION
  5
35C
330
1F
100
AcDbEntity
  8
1
100
AcDbDimension
  2
*D6
 10
527.8268551131011
 20
137.2985025058871
 30
0.0
 11
520.8268551131011
 21
186.7985025058871
 31
0.0
 70
    32
  1
<>
 71
     5
 42
-1.0
 53
90.0
  3
ME10_DIM_14
100
AcDbAlignedDimension
 13
438.4493541123005
 23
236.2985025058871
 33
0.0
 14
477.8268551131011
 24
137.298502505887
 34
0.0
 50
90.0
100
AcDbRotatedDimension
  0
DIMENSION
  5
367
330
1F
100
AcDbEntity
  8
1
100
AcDbDimension
  2
*D7
 10
117.6768551147413
 20
117.2985025058871
 30
0.0
 11
173.1768551147413
 21
124.2985025058871
 31
0.0
 70
    32
  1
<>
 71
     5
 42
-1.0
 53
0.00013888888889
  3
ME10_DIM_15
100
AcDbAlignedDimension
 13
228.6768551147413
 23
134.2985025058871
 33
0.0
 14
117.6768551147413
 24
134.2985025058871
 34
0.0
100
AcDbRotatedDimension
  0
DIMENSION
  5
372
330
1F
100
AcDbEntity
  8
1
100
AcDbDimension
  2
*D8
 10
364.8268551131012
 20
117.2985025058871
 30
0.0
 11
417.8268551131012
 21
124.2985025058871
 31
0.0
 70
    32
  1
<>
 71
     5
 42
-1.0
 53
0.00013888888889
  3
ME10_DIM_16
100
AcDbAlignedDimension
 13
470.8268551131012
 23
134.2985025058871
 33
0.0
 14
364.8268551131012
 24
134.2985025058871
 34
0.0
100
AcDbRotatedDimension
  0
DIMENSION
  5
37D
330
1F
100
AcDbEntity
  8
1
100
AcDbDimension
  2
*D9
 10
263.6768551147413
 20
189.7985025058871
 30
0.0
 11
256.6768551147413
 21
169.7985025058871
 31
0.0
 70
    32
  1
PG36
 71
     5
 42
-1.0
 53
90.0
  3
ME10_DIM_17
100
AcDbAlignedDimension
 13
243.697346225226
 23
149.7985025058871
 33
0.0
 14
243.697346225226
 24
189.7985025058871
 34
0.0
 50
90.0
100
AcDbRotatedDimension
  0
DIMENSION
  5
388
330
1F
100
AcDbEntity
  8
1
100
AcDbDimension
  2
*D10
 10
84.67685511474131
 20
189.7985025058871
 30
0.0
 11
77.67685511474131
 21
169.7985025058871
 31
0.0
 70
    32
  1
PG36
 71
     5
 42
-1.0
 53
90.0
  3
ME10_DIM_18
100
AcDbAlignedDimension
 13
99.58324341966703
 23
149.7985025058871
 33
0.0
 14
99.58324341966703
 24
189.7985025058871
 34
0.0
 50
90.0
100
AcDbRotatedDimension
  0
ENDSEC
  0
SECTION
  2
OBJECTS
  0
DICTIONARY
  5
C
330
0
100
AcDbDictionary
281
     1
  3
ACAD_GROUP
350
D
  3
ACAD_LAYOUT
350
1A
  3
ACAD_MATERIAL
350
3B
  3
ACAD_MLEADERSTYLE
350
38B
  3
ACAD_MLINESTYLE
350
17
  3
ACAD_PLOTSETTINGS
350
19
  3
ACAD_PLOTSTYLENAME
350
E
  3
ACAD_VISUALSTYLE
350
2A
  3
AcDbVariableDictionary
350
389
  0
DICTIONARY
  5
D
102
{ACAD_REACTORS
330
C
102
}
330
C
100
AcDbDictionary
281
     1
  0
DICTIONARY
  5
1A
102
{ACAD_REACTORS
330
C
102
}
330
C
100
AcDbDictionary
281
     1
  3
Layout1
350
1E
  3
Layout2
350
26
  3
Model
350
22
  0
DICTIONARY
  5
3B
102
{ACAD_REACTORS
330
C
102
}
330
C
100
AcDbDictionary
281
     1
  3
ByBlock
350
3D
  3
ByLayer
350
3C
  3
Global
350
3E
  0
DICTIONARY
  5
38B
102
{ACAD_REACTORS
330
C
102
}
330
C
100
AcDbDictionary
281
     1
  0
DICTIONARY
  5
17
102
{ACAD_REACTORS
330
C
102
}
330
C
100
AcDbDictionary
281
     1
  3
Standard
350
18
  0
DICTIONARY
  5
19
102
{ACAD_REACTORS
330
C
102
}
330
C
100
AcDbDictionary
281
     1
  0
ACDBDICTIONARYWDFLT
  5
E
102
{ACAD_REACTORS
330
C
102
}
330
C
100
AcDbDictionary
281
     1
  3
Normal
350
F
100
AcDbDictionaryWithDefault
340
F
  0
DICTIONARY
  5
2A
102
{ACAD_REACTORS
330
C
102
}
330
C
100
AcDbDictionary
281
     1
  3
2dWireframe
350
2F
  3
3D Hidden
350
31
  3
3dWireframe
350
30
  3
Basic
350
32
  3
Brighten
350
36
  3
ColorChange
350
3A
  3
Conceptual
350
34
  3
Dim
350
35
  3
Facepattern
350
39
  3
Flat
350
2B
  3
FlatWithEdges
350
2C
  3
Gouraud
350
2D
  3
GouraudWithEdges
350
2E
  3
Linepattern
350
38
  3
Realistic
350
33
  3
Thicken
350
37
  0
DICTIONARY
  5
389
102
{ACAD_REACTORS
330
C
102
}
330
C
100
AcDbDictionary
281
     1
  3
DIMASSOC
350
38C
  3
HIDETEXT
350
38D
  0
LAYOUT
  5
1E
102
{ACAD_REACTORS
330
1A
102
}
330
1A
100
AcDbPlotSettings
  1

  2
none_device
  4

  6

 40
0.0
 41
0.0
 42
0.0
 43
0.0
 44
0.0
 45
0.0
 46
0.0
 47
0.0
 48
0.0
 49
0.0
140
0.0
141
0.0
142
1.0
143
1.0
 70
   688
 72
     0
 73
     0
 74
     5
  7

 75
    16
147
1.0
148
0.0
149
0.0
100
AcDbLayout
  1
Layout1
 70
     1
 71
     1
 10
0.0
 20
0.0
 11
12.0
 21
9.0
 12
0.0
 22
0.0
 32
0.0
 14
1.00000000000000E+20
 24
1.00000000000000E+20
 34
1.00000000000000E+20
 15
-1.00000000000000E+20
 25
-1.00000000000000E+20
 35
-1.00000000000000E+20
146
0.0
 13
0.0
 23
0.0
 33
0.0
 16
1.0
 26
0.0
 36
0.0
 17
0.0
 27
1.0
 37
0.0
 76
     0
330
1B
  0
LAYOUT
  5
26
102
{ACAD_REACTORS
330
1A
102
}
330
1A
100
AcDbPlotSettings
  1

  2
none_device
  4

  6

 40
0.0
 41
0.0
 42
0.0
 43
0.0
 44
0.0
 45
0.0
 46
0.0
 47
0.0
 48
0.0
 49
0.0
140
0.0
141
0.0
142
1.0
143
1.0
 70
   688
 72
     0
 73
     0
 74
     5
  7

 75
    16
147
1.0
148
0.0
149
0.0
100
AcDbLayout
  1
Layout2
 70
     1
 71
     2
 10
0.0
 20
0.0
 11
0.0
 21
0.0
 12
0.0
 22
0.0
 32
0.0
 14
0.0
 24
0.0
 34
0.0
 15
0.0
 25
0.0
 35
0.0
146
0.0
 13
0.0
 23
0.0
 33
0.0
 16
1.0
 26
0.0
 36
0.0
 17
0.0
 27
1.0
 37
0.0
 76
     0
330
23
  0
LAYOUT
  5
22
102
{ACAD_REACTORS
330
1A
102
}
330
1A
100
AcDbPlotSettings
  1

  2
none_device
  4

  6

 40
0.0
 41
0.0
 42
0.0
 43
0.0
 44
0.0
 45
0.0
 46
0.0
 47
0.0
 48
0.0
 49
0.0
140
0.0
141
0.0
142
1.0
143
1.0
 70
  1712
 72
     0
 73
     0
 74
     0
  7

 75
     0
147
1.0
148
0.0
149
0.0
100
AcDbLayout
  1
Model
 70
     1
 71
     0
 10
0.0
 20
0.0
 11
12.0
 21
9.0
 12
0.0
 22
0.0
 32
0.0
 14
0.0
 24
0.0
 34
0.0
 15
594.0000000000002
 25
420.0000000000002
 35
0.0
146
0.0
 13
0.0
 23
0.0
 33
0.0
 16
1.0
 26
0.0
 36
0.0
 17
0.0
 27
1.0
 37
0.0
 76
     0
330
1F
331
29
  0
MATERIAL
  5
3D
102
{ACAD_REACTORS
330
3B
102
}
102
{ACAD_XDICTIONARY
360
3B0
102
}
330
3B
100
AcDbMaterial
  1
ByBlock
  0
MATERIAL
  5
3C
102
{ACAD_REACTORS
330
3B
102
}
102
{ACAD_XDICTIONARY
360
3AE
102
}
330
3B
100
AcDbMaterial
  1
ByLayer
  0
MATERIAL
  5
3E
102
{ACAD_REACTORS
330
3B
102
}
102
{ACAD_XDICTIONARY
360
3B2
102
}
330
3B
100
AcDbMaterial
  1
Global
  0
MLINESTYLE
  5
18
102
{ACAD_REACTORS
330
17
102
}
330
17
100
AcDbMlineStyle
  2
Standard
 70
     0
  3

 62
   256
 51
90.0
 52
90.0
 71
     2
 49
0.5
 62
   256
  6
BYLAYER
 49
-0.5
 62
   256
  6
BYLAYER
  0
ACDBPLACEHOLDER
  5
F
102
{ACAD_REACTORS
330
E
102
}
330
E
  0
VISUALSTYLE
  5
2F
102
{ACAD_REACTORS
330
2A
102
}
102
{ACAD_XDICTIONARY
360
396
102
}
330
2A
100
AcDbVisualStyle
  2
2dWireframe
 70
     4
 71
     0
 72
     2
 73
     0
 90
        0
 40
-0.6
 41
-30.0
 62
     5
 63
     7
 74
     1
 91
        4
 64
     7
 65
   257
 75
     1
175
     1
 42
1.0
 92
        0
 66
   257
 43
1.0
 76
     1
 77
     6
 78
     2
 67
     7
 79
     5
170
     0
171
     0
290
     0
174
     0
 93
        1
 44
0.0
173
     0
291
     0
 45
0.0
1001
ACAD
1000
AcDbSavedByObjectVersion
1070
     0
  0
VISUALSTYLE
  5
31
102
{ACAD_REACTORS
330
2A
102
}
102
{ACAD_XDICTIONARY
360
39A
102
}
330
2A
100
AcDbVisualStyle
  2
3D Hidden
 70
     6
 71
     1
 72
     2
 73
     2
 90
        0
 40
-0.6
 41
-30.0
 62
     5
 63
     7
 74
     2
 91
        2
 64
     7
 65
   257
 75
     2
175
     1
 42
40.0
 92
        0
 66
   257
 43
1.0
 76
     1
 77
     6
 78
     2
 67
     7
 79
     3
170
     0
171
     0
290
     0
174
     0
 93
        1
 44
0.0
173
     0
291
     0
 45
0.0
1001
ACAD
1000
AcDbSavedByObjectVersion
1070
     0
  0
VISUALSTYLE
  5
30
102
{ACAD_REACTORS
330
2A
102
}
102
{ACAD_XDICTIONARY
360
398
102
}
330
2A
100
AcDbVisualStyle
  2
3dWireframe
 70
     5
 71
     0
 72
     2
 73
     0
 90
        0
 40
-0.6
 41
-30.0
 62
     5
 63
     7
 74
     1
 91
        4
 64
     7
 65
   257
 75
     1
175
     1
 42
1.0
 92
        0
 66
   257
 43
1.0
 76
     1
 77
     6
 78
     2
 67
     7
 79
     5
170
     0
171
     0
290
     0
174
     0
 93
        1
 44
0.0
173
     0
291
     0
 45
0.0
1001
ACAD
1000
AcDbSavedByObjectVersion
1070
     0
  0
VISUALSTYLE
  5
32
102
{ACAD_REACTORS
330
2A
102
}
102
{ACAD_XDICTIONARY
360
39C
102
}
330
2A
100
AcDbVisualStyle
  2
Basic
 70
     7
 71
     1
 72
     0
 73
     1
 90
        0
 40
-0.6
 41
-30.0
 62
     5
 63
     7
 74
     0
 91
        4
 64
     7
 65
   257
 75
     1
175
     1
 42
1.0
 92
        8
 66
     7
 43
1.0
 76
     1
 77
     6
 78
     2
 67
     7
 79
     5
170
     0
171
     0
290
     0
174
     0
 93
        1
 44
0.0
173
     0
291
     1
 45
0.0
1001
ACAD
1000
AcDbSavedByObjectVersion
1070
     0
  0
VISUALSTYLE
  5
36
102
{ACAD_REACTORS
330
2A
102
}
102
{ACAD_XDICTIONARY
360
3A4
102
}
330
2A
100
AcDbVisualStyle
  2
Brighten
 70
    12
 71
     2
 72
     2
 73
     0
 90
        0
 40
-0.6
 41
-30.0
 62
     5
 63
     7
 74
     1
 91
        4
 64
     7
 65
   257
 75
     1
175
     1
 42
1.0
 92
        8
 66
     7
 43
1.0
 76
     1
 77
     6
 78
     2
 67
     7
 79
     5
170
     0
171
     0
290
     0
174
     0
 93
        1
 44
50.0
173
     0
291
     1
 45
0.0
1001
ACAD
1000
AcDbSavedByObjectVersion
1070
     0
  0
VISUALSTYLE
  5
3A
102
{ACAD_REACTORS
330
2A
102
}
102
{ACAD_XDICTIONARY
360
3AC
102
}
330
2A
100
AcDbVisualStyle
  2
ColorChange
 70
    16
 71
     2
 72
     2
 73
     3
 90
        0
 40
-0.6
 41
-30.0
 62
     5
 63
     8
 74
     1
 91
        4
 64
     7
 65
   257
 75
     1
175
     1
 42
1.0
 92
        8
 66
     8
 43
1.0
 76
     1
 77
     6
 78
     2
 67
     7
 79
     5
170
     0
171
     0
290
     0
174
     0
 93
        1
 44
0.0
173
     0
291
     1
 45
0.0
1001
ACAD
1000
AcDbSavedByObjectVersion
1070
     0
  0
VISUALSTYLE
  5
34
102
{ACAD_REACTORS
330
2A
102
}
102
{ACAD_XDICTIONARY
360
3A0
102
}
330
2A
100
AcDbVisualStyle
  2
Conceptual
 70
     9
 71
     3
 72
     2
 73
     0
 90
        0
 40
-0.6
 41
-30.0
 62
     5
 63
     7
 74
     2
 91
        2
 64
     7
 65
   257
 75
     1
175
     1
 42
40.0
 92
        8
 66
     7
 43
1.0
 76
     1
 77
     6
 78
     2
 67
     7
 79
     3
170
     0
171
     0
290
     0
174
     0
 93
        1
 44
0.0
173
     0
291
     0
 45
0.0
1001
ACAD
1000
AcDbSavedByObjectVersion
1070
     0
  0
VISUALSTYLE
  5
35
102
{ACAD_REACTORS
330
2A
102
}
102
{ACAD_XDICTIONARY
360
3A2
102
}
330
2A
100
AcDbVisualStyle
  2
Dim
 70
    11
 71
     2
 72
     2
 73
     0
 90
        0
 40
-0.6
 41
-30.0
 62
     5
 63
     7
 74
     1
 91
        4
 64
     7
 65
   257
 75
     1
175
     1
 42
1.0
 92
        8
 66
     7
 43
1.0
 76
     1
 77
     6
 78
     2
 67
     7
 79
     5
170
     0
171
     0
290
     0
174
     0
 93
        1
 44
-50.0
173
     0
291
     1
 45
0.0
1001
ACAD
1000
AcDbSavedByObjectVersion
1070
     0
  0
VISUALSTYLE
  5
39
102
{ACAD_REACTORS
330
2A
102
}
102
{ACAD_XDICTIONARY
360
3AA
102
}
330
2A
100
AcDbVisualStyle
  2
Facepattern
 70
    15
 71
     2
 72
     2
 73
     0
 90
        0
 40
-0.6
 41
-30.0
 62
     5
 63
     7
 74
     1
 91
        4
 64
     7
 65
   257
 75
     1
175
     1
 42
1.0
 92
        8
 66
     7
 43
1.0
 76
     1
 77
     6
 78
     2
 67
     7
 79
     5
170
     0
171
     0
290
     0
174
     0
 93
        1
 44
0.0
173
     0
291
     1
 45
0.0
1001
ACAD
1000
AcDbSavedByObjectVersion
1070
     0
  0
VISUALSTYLE
  5
2B
102
{ACAD_REACTORS
330
2A
102
}
102
{ACAD_XDICTIONARY
360
38E
102
}
330
2A
100
AcDbVisualStyle
  2
Flat
 70
     0
 71
     2
 72
     1
 73
     1
 90
        2
 40
-0.6
 41
30.0
 62
     5
 63
     7
 74
     0
 91
        4
 64
     7
 65
   257
 75
     1
175
     1
 42
1.0
 92
        8
 66
     7
 43
1.0
 76
     1
 77
     6
 78
     2
 67
     7
 79
     5
170
     0
171
     0
290
     0
174
     0
 93
       13
 44
0.0
173
     0
291
     1
 45
0.0
1001
ACAD
1000
AcDbSavedByObjectVersion
1070
     0
  0
VISUALSTYLE
  5
2C
102
{ACAD_REACTORS
330
2A
102
}
102
{ACAD_XDICTIONARY
360
390
102
}
330
2A
100
AcDbVisualStyle
  2
FlatWithEdges
 70
     1
 71
     2
 72
     1
 73
     1
 90
        2
 40
-0.6
 41
30.0
 62
     5
 63
     7
 74
     1
 91
        4
 64
     7
 65
   257
 75
     1
175
     1
 42
1.0
 92
        0
 66
   257
 43
1.0
 76
     1
 77
     6
 78
     2
 67
     7
 79
     5
170
     0
171
     0
290
     0
174
     0
 93
       13
 44
0.0
173
     0
291
     1
 45
0.0
1001
ACAD
1000
AcDbSavedByObjectVersion
1070
     0
  0
VISUALSTYLE
  5
2D
102
{ACAD_REACTORS
330
2A
102
}
102
{ACAD_XDICTIONARY
360
392
102
}
330
2A
100
AcDbVisualStyle
  2
Gouraud
 70
     2
 71
     2
 72
     2
 73
     1
 90
        2
 40
-0.6
 41
30.0
 62
     5
 63
     7
 74
     0
 91
        4
 64
     7
 65
   257
 75
     1
175
     1
 42
1.0
 92
        0
 66
     7
 43
1.0
 76
     1
 77
     6
 78
     2
 67
     7
 79
     5
170
     0
171
     0
290
     0
174
     0
 93
       13
 44
0.0
173
     0
291
     1
 45
0.0
1001
ACAD
1000
AcDbSavedByObjectVersion
1070
     0
  0
VISUALSTYLE
  5
2E
102
{ACAD_REACTORS
330
2A
102
}
102
{ACAD_XDICTIONARY
360
394
102
}
330
2A
100
AcDbVisualStyle
  2
GouraudWithEdges
 70
     3
 71
     2
 72
     2
 73
     1
 90
        2
 40
-0.6
 41
30.0
 62
     5
 63
     7
 74
     1
 91
        4
 64
     7
 65
   257
 75
     1
175
     1
 42
1.0
 92
        0
 66
   257
 43
1.0
 76
     1
 77
     6
 78
     2
 67
     7
 79
     5
170
     0
171
     0
290
     0
174
     0
 93
       13
 44
0.0
173
     0
291
     1
 45
0.0
1001
ACAD
1000
AcDbSavedByObjectVersion
1070
     0
  0
VISUALSTYLE
  5
38
102
{ACAD_REACTORS
330
2A
102
}
102
{ACAD_XDICTIONARY
360
3A8
102
}
330
2A
100
AcDbVisualStyle
  2
Linepattern
 70
    14
 71
     2
 72
     2
 73
     0
 90
        0
 40
-0.6
 41
-30.0
 62
     5
 63
     7
 74
     1
 91
        4
 64
     7
 65
   257
 75
     7
175
     7
 42
1.0
 92
        8
 66
     7
 43
1.0
 76
     1
 77
     6
 78
     2
 67
     7
 79
     5
170
     0
171
     0
290
     0
174
     0
 93
        1
 44
0.0
173
     0
291
     1
 45
0.0
1001
ACAD
1000
AcDbSavedByObjectVersion
1070
     0
  0
VISUALSTYLE
  5
33
102
{ACAD_REACTORS
330
2A
102
}
102
{ACAD_XDICTIONARY
360
39E
102
}
330
2A
100
AcDbVisualStyle
  2
Realistic
 70
     8
 71
     2
 72
     2
 73
     0
 90
        0
 40
-0.6
 41
-30.0
 62
     5
 63
     7
 74
     1
 91
        0
 64
     7
 65
   257
 75
     1
175
     1
 42
1.0
 92
        8
 66
     8
 43
1.0
 76
     1
 77
     6
 78
     2
 67
     7
 79
     5
170
     0
171
     0
290
     0
174
     0
 93
       13
 44
0.0
173
     0
291
     0
 45
0.0
1001
ACAD
1000
AcDbSavedByObjectVersion
1070
     0
  0
VISUALSTYLE
  5
37
102
{ACAD_REACTORS
330
2A
102
}
102
{ACAD_XDICTIONARY
360
3A6
102
}
330
2A
100
AcDbVisualStyle
  2
Thicken
 70
    13
 71
     2
 72
     2
 73
     0
 90
        0
 40
-0.6
 41
-30.0
 62
     5
 63
     7
 74
     1
 91
        4
 64
     7
 65
   257
 75
     1
175
     1
 42
1.0
 92
       12
 66
     7
 43
1.0
 76
     1
 77
     6
 78
     2
 67
     7
 79
     5
170
     0
171
     0
290
     0
174
     0
 93
        1
 44
0.0
173
     0
291
     1
 45
0.0
1001
ACAD
1000
AcDbSavedByObjectVersion
1070
     0
  0
DICTIONARYVAR
  5
38C
102
{ACAD_REACTORS
330
389
102
}
330
389
100
DictionaryVariables
280
     0
  1
2
  0
DICTIONARYVAR
  5
38D
102
{ACAD_REACTORS
330
389
102
}
330
389
100
DictionaryVariables
280
     0
  1
1
  0
DICTIONARY
  5
3B0
330
3D
100
AcDbDictionary
280
     1
281
     1
  3
ACAD_XREC_ROUNDTRIP
360
3B1
  0
DICTIONARY
  5
3AE
330
3C
100
AcDbDictionary
280
     1
281
     1
  3
ACAD_XREC_ROUNDTRIP
360
3AF
  0
DICTIONARY
  5
3B2
330
3E
100
AcDbDictionary
280
     1
281
     1
  3
ACAD_XREC_ROUNDTRIP
360
3B3
  0
DICTIONARY
  5
396
330
2F
100
AcDbDictionary
280
     1
281
     1
  3
ACAD_XREC_ROUNDTRIP
360
397
  0
DICTIONARY
  5
39A
330
31
100
AcDbDictionary
280
     1
281
     1
  3
ACAD_XREC_ROUNDTRIP
360
39B
  0
DICTIONARY
  5
398
330
30
100
AcDbDictionary
280
     1
281
     1
  3
ACAD_XREC_ROUNDTRIP
360
399
  0
DICTIONARY
  5
39C
330
32
100
AcDbDictionary
280
     1
281
     1
  3
ACAD_XREC_ROUNDTRIP
360
39D
  0
DICTIONARY
  5
3A4
330
36
100
AcDbDictionary
280
     1
281
     1
  3
ACAD_XREC_ROUNDTRIP
360
3A5
  0
DICTIONARY
  5
3AC
330
3A
100
AcDbDictionary
280
     1
281
     1
  3
ACAD_XREC_ROUNDTRIP
360
3AD
  0
DICTIONARY
  5
3A0
330
34
100
AcDbDictionary
280
     1
281
     1
  3
ACAD_XREC_ROUNDTRIP
360
3A1
  0
DICTIONARY
  5
3A2
330
35
100
AcDbDictionary
280
     1
281
     1
  3
ACAD_XREC_ROUNDTRIP
360
3A3
  0
DICTIONARY
  5
3AA
330
39
100
AcDbDictionary
280
     1
281
     1
  3
ACAD_XREC_ROUNDTRIP
360
3AB
  0
DICTIONARY
  5
38E
330
2B
100
AcDbDictionary
280
     1
281
     1
  3
ACAD_XREC_ROUNDTRIP
360
38F
  0
DICTIONARY
  5
390
330
2C
100
AcDbDictionary
280
     1
281
     1
  3
ACAD_XREC_ROUNDTRIP
360
391
  0
DICTIONARY
  5
392
330
2D
100
AcDbDictionary
280
     1
281
     1
  3
ACAD_XREC_ROUNDTRIP
360
393
  0
DICTIONARY
  5
394
330
2E
100
AcDbDictionary
280
     1
281
     1
  3
ACAD_XREC_ROUNDTRIP
360
395
  0
DICTIONARY
  5
3A8
330
38
100
AcDbDictionary
280
     1
281
     1
  3
ACAD_XREC_ROUNDTRIP
360
3A9
  0
DICTIONARY
  5
39E
330
33
100
AcDbDictionary
280
     1
281
     1
  3
ACAD_XREC_ROUNDTRIP
360
39F
  0
DICTIONARY
  5
3A6
330
37
100
AcDbDictionary
280
     1
281
     1
  3
ACAD_XREC_ROUNDTRIP
360
3A7
  0
XRECORD
  5
3B1
102
{ACAD_REACTORS
330
3B0
102
}
330
3B0
100
AcDbXrecord
280
     1
102
MATERIAL
148
0.0
149
0.0
149
0.0
 93
        0
 94
      127
282
     0
 72
     1
 77
     1
171
     1
175
     1
179
     1
273
     0
  0
XRECORD
  5
3AF
102
{ACAD_REACTORS
330
3AE
102
}
330
3AE
100
AcDbXrecord
280
     1
102
MATERIAL
148
0.0
149
0.0
149
0.0
 93
        0
 94
      127
282
     0
 72
     1
 77
     1
171
     1
175
     1
179
     1
273
     0
  0
XRECORD
  5
3B3
102
{ACAD_REACTORS
330
3B2
102
}
330
3B2
100
AcDbXrecord
280
     1
102
MATERIAL
148
0.0
149
0.0
149
0.0
 93
        0
 94
      127
282
     0
 72
     1
 77
     1
171
     1
175
     1
179
     1
273
     0
  0
XRECORD
  5
397
102
{ACAD_REACTORS
330
396
102
}
330
396
100
AcDbXrecord
280
     1
102
RTVSPropertyOp0
 70
     1
102
RTVSPropertyOp1
 70
     1
102
RTVSPropertyOp2
 70
     1
102
RTVSPropertyOp3
 70
     1
102
RTVSPropertyOp4
 70
     1
102
RTVSPropertyOp5
 70
     1
102
RTVSPropertyOp6
 70
     1
102
RTVSPropertyOp7
 70
     1
102
RTVSPropertyOp8
 70
     1
102
RTVSPropertyOp9
 70
     1
102
RTVSPropertyOp10
 70
     1
102
RTVSPropertyOp11
 70
     1
102
RTVSPropertyOp12
 70
     1
102
RTVSPropertyOp13
 70
     1
102
RTVSPropertyOp14
 70
     1
102
RTVSPropertyOp15
 70
     1
102
RTVSPropertyOp16
 70
     1
102
RTVSPropertyOp17
 70
     1
102
RTVSPropertyOp18
 70
     1
102
RTVSPropertyOp19
 70
     1
102
RTVSPropertyOp20
 70
     1
102
RTVSPropertyOp21
 70
     1
102
RTVSPropertyOp22
 70
     1
102
RTVSPropertyOp23
 70
     1
102
RTVSPropertyOp24
 70
     1
102
RTVSPropertyOp25
 70
     1
102
RTVSPropertyOp26
 70
     1
102
RTVSPropertyOp27
 70
     1
102
RTVSPropertyOp28
 70
     1
102
RTVSPropertyOp29
 70
     1
102
RTVSPropertyOp30
 70
     1
102
RTVSPropertyOp31
 70
     1
102
RTVSPropertyOp32
 70
     1
  0
XRECORD
  5
39B
102
{ACAD_REACTORS
330
39A
102
}
330
39A
100
AcDbXrecord
280
     1
102
RTVSPropertyOp0
 70
     1
102
RTVSPropertyOp1
 70
     1
102
RTVSPropertyOp2
 70
     1
102
RTVSPropertyOp3
 70
     1
102
RTVSPropertyOp4
 70
     1
102
RTVSPropertyOp5
 70
     1
102
RTVSPropertyOp6
 70
     1
102
RTVSPropertyOp7
 70
     1
102
RTVSPropertyOp8
 70
     1
102
RTVSPropertyOp9
 70
     1
102
RTVSPropertyOp10
 70
     1
102
RTVSPropertyOp11
 70
     1
102
RTVSPropertyOp12
 70
     1
102
RTVSPropertyOp13
 70
     1
102
RTVSPropertyOp14
 70
     1
102
RTVSPropertyOp15
 70
     1
102
RTVSPropertyOp16
 70
     1
102
RTVSPropertyOp17
 70
     1
102
RTVSPropertyOp18
 70
     1
102
RTVSPropertyOp19
 70
     1
102
RTVSPropertyOp20
 70
     1
102
RTVSPropertyOp21
 70
     1
102
RTVSPropertyOp22
 70
     1
102
RTVSPropertyOp23
 70
     1
102
RTVSPropertyOp24
 70
     1
102
RTVSPropertyOp25
 70
     1
102
RTVSPropertyOp26
 70
     1
102
RTVSPropertyOp27
 70
     1
102
RTVSPropertyOp28
 70
     1
102
RTVSPropertyOp29
 70
     1
102
RTVSPropertyOp30
 70
     1
102
RTVSPropertyOp31
 70
     1
102
RTVSPropertyOp32
 70
     1
  0
XRECORD
  5
399
102
{ACAD_REACTORS
330
398
102
}
330
398
100
AcDbXrecord
280
     1
102
RTVSPropertyOp0
 70
     1
102
RTVSPropertyOp1
 70
     1
102
RTVSPropertyOp2
 70
     1
102
RTVSPropertyOp3
 70
     1
102
RTVSPropertyOp4
 70
     1
102
RTVSPropertyOp5
 70
     1
102
RTVSPropertyOp6
 70
     1
102
RTVSPropertyOp7
 70
     1
102
RTVSPropertyOp8
 70
     1
102
RTVSPropertyOp9
 70
     1
102
RTVSPropertyOp10
 70
     1
102
RTVSPropertyOp11
 70
     1
102
RTVSPropertyOp12
 70
     1
102
RTVSPropertyOp13
 70
     1
102
RTVSPropertyOp14
 70
     1
102
RTVSPropertyOp15
 70
     1
102
RTVSPropertyOp16
 70
     1
102
RTVSPropertyOp17
 70
     1
102
RTVSPropertyOp18
 70
     1
102
RTVSPropertyOp19
 70
     1
102
RTVSPropertyOp20
 70
     1
102
RTVSPropertyOp21
 70
     1
102
RTVSPropertyOp22
 70
     1
102
RTVSPropertyOp23
 70
     1
102
RTVSPropertyOp24
 70
     1
102
RTVSPropertyOp25
 70
     1
102
RTVSPropertyOp26
 70
     1
102
RTVSPropertyOp27
 70
     1
102
RTVSPropertyOp28
 70
     1
102
RTVSPropertyOp29
 70
     1
102
RTVSPropertyOp30
 70
     1
102
RTVSPropertyOp31
 70
     1
102
RTVSPropertyOp32
 70
     1
  0
XRECORD
  5
39D
102
{ACAD_REACTORS
330
39C
102
}
330
39C
100
AcDbXrecord
280
     1
102
RTVSPropertyOp0
 70
     1
102
RTVSPropertyOp1
 70
     1
102
RTVSPropertyOp2
 70
     1
102
RTVSPropertyOp3
 70
     1
102
RTVSPropertyOp4
 70
     1
102
RTVSPropertyOp5
 70
     1
102
RTVSPropertyOp6
 70
     1
102
RTVSPropertyOp7
 70
     1
102
RTVSPropertyOp8
 70
     1
102
RTVSPropertyOp9
 70
     1
102
RTVSPropertyOp10
 70
     1
102
RTVSPropertyOp11
 70
     1
102
RTVSPropertyOp12
 70
     1
102
RTVSPropertyOp13
 70
     1
102
RTVSPropertyOp14
 70
     1
102
RTVSPropertyOp15
 70
     1
102
RTVSPropertyOp16
 70
     1
102
RTVSPropertyOp17
 70
     1
102
RTVSPropertyOp18
 70
     1
102
RTVSPropertyOp19
 70
     1
102
RTVSPropertyOp20
 70
     1
102
RTVSPropertyOp21
 70
     1
102
RTVSPropertyOp22
 70
     1
102
RTVSPropertyOp23
 70
     1
102
RTVSPropertyOp24
 70
     1
102
RTVSPropertyOp25
 70
     1
102
RTVSPropertyOp26
 70
     1
102
RTVSPropertyOp27
 70
     1
102
RTVSPropertyOp28
 70
     1
102
RTVSPropertyOp29
 70
     1
102
RTVSPropertyOp30
 70
     1
102
RTVSPropertyOp31
 70
     1
102
RTVSPropertyOp32
 70
     1
  0
XRECORD
  5
3A5
102
{ACAD_REACTORS
330
3A4
102
}
330
3A4
100
AcDbXrecord
280
     1
102
RTVSPropertyOp0
 70
     1
102
RTVSPropertyOp1
 70
     1
102
RTVSPropertyOp2
 70
     1
102
RTVSPropertyOp3
 70
     1
102
RTVSPropertyOp4
 70
     1
102
RTVSPropertyOp5
 70
     1
102
RTVSPropertyOp6
 70
     1
102
RTVSPropertyOp7
 70
     1
102
RTVSPropertyOp8
 70
     1
102
RTVSPropertyOp9
 70
     1
102
RTVSPropertyOp10
 70
     1
102
RTVSPropertyOp11
 70
     1
102
RTVSPropertyOp12
 70
     1
102
RTVSPropertyOp13
 70
     1
102
RTVSPropertyOp14
 70
     1
102
RTVSPropertyOp15
 70
     1
102
RTVSPropertyOp16
 70
     1
102
RTVSPropertyOp17
 70
     1
102
RTVSPropertyOp18
 70
     1
102
RTVSPropertyOp19
 70
     1
102
RTVSPropertyOp20
 70
     1
102
RTVSPropertyOp21
 70
     1
102
RTVSPropertyOp22
 70
     1
102
RTVSPropertyOp23
 70
     1
102
RTVSPropertyOp24
 70
     1
102
RTVSPropertyOp25
 70
     1
102
RTVSPropertyOp26
 70
     1
102
RTVSPropertyOp27
 70
     1
102
RTVSPropertyOp28
 70
     1
102
RTVSPropertyOp29
 70
     1
102
RTVSPropertyOp30
 70
     1
102
RTVSPropertyOp31
 70
     1
102
RTVSPropertyOp32
 70
     1
  0
XRECORD
  5
3AD
102
{ACAD_REACTORS
330
3AC
102
}
330
3AC
100
AcDbXrecord
280
     1
102
RTVSPropertyOp0
 70
     1
102
RTVSPropertyOp1
 70
     1
102
RTVSPropertyOp2
 70
     1
102
RTVSPropertyOp3
 70
     1
102
RTVSPropertyOp4
 70
     1
102
RTVSPropertyOp5
 70
     1
102
RTVSPropertyOp6
 70
     1
102
RTVSPropertyOp7
 70
     1
102
RTVSPropertyOp8
 70
     1
102
RTVSPropertyOp9
 70
     1
102
RTVSPropertyOp10
 70
     1
102
RTVSPropertyOp11
 70
     1
102
RTVSPropertyOp12
 70
     1
102
RTVSPropertyOp13
 70
     1
102
RTVSPropertyOp14
 70
     1
102
RTVSPropertyOp15
 70
     1
102
RTVSPropertyOp16
 70
     1
102
RTVSPropertyOp17
 70
     1
102
RTVSPropertyOp18
 70
     1
102
RTVSPropertyOp19
 70
     1
102
RTVSPropertyOp20
 70
     1
102
RTVSPropertyOp21
 70
     1
102
RTVSPropertyOp22
 70
     1
102
RTVSPropertyOp23
 70
     1
102
RTVSPropertyOp24
 70
     1
102
RTVSPropertyOp25
 70
     1
102
RTVSPropertyOp26
 70
     1
102
RTVSPropertyOp27
 70
     1
102
RTVSPropertyOp28
 70
     1
102
RTVSPropertyOp29
 70
     1
102
RTVSPropertyOp30
 70
     1
102
RTVSPropertyOp31
 70
     1
102
RTVSPropertyOp32
 70
     1
  0
XRECORD
  5
3A1
102
{ACAD_REACTORS
330
3A0
102
}
330
3A0
100
AcDbXrecord
280
     1
102
RTVSPropertyOp0
 70
     1
102
RTVSPropertyOp1
 70
     1
102
RTVSPropertyOp2
 70
     1
102
RTVSPropertyOp3
 70
     1
102
RTVSPropertyOp4
 70
     1
102
RTVSPropertyOp5
 70
     1
102
RTVSPropertyOp6
 70
     1
102
RTVSPropertyOp7
 70
     1
102
RTVSPropertyOp8
 70
     1
102
RTVSPropertyOp9
 70
     1
102
RTVSPropertyOp10
 70
     1
102
RTVSPropertyOp11
 70
     1
102
RTVSPropertyOp12
 70
     1
102
RTVSPropertyOp13
 70
     1
102
RTVSPropertyOp14
 70
     1
102
RTVSPropertyOp15
 70
     1
102
RTVSPropertyOp16
 70
     1
102
RTVSPropertyOp17
 70
     1
102
RTVSPropertyOp18
 70
     1
102
RTVSPropertyOp19
 70
     1
102
RTVSPropertyOp20
 70
     1
102
RTVSPropertyOp21
 70
     1
102
RTVSPropertyOp22
 70
     1
102
RTVSPropertyOp23
 70
     1
102
RTVSPropertyOp24
 70
     1
102
RTVSPropertyOp25
 70
     1
102
RTVSPropertyOp26
 70
     1
102
RTVSPropertyOp27
 70
     1
102
RTVSPropertyOp28
 70
     1
102
RTVSPropertyOp29
 70
     1
102
RTVSPropertyOp30
 70
     1
102
RTVSPropertyOp31
 70
     1
102
RTVSPropertyOp32
 70
     1
  0
XRECORD
  5
3A3
102
{ACAD_REACTORS
330
3A2
102
}
330
3A2
100
AcDbXrecord
280
     1
102
RTVSPropertyOp0
 70
     1
102
RTVSPropertyOp1
 70
     1
102
RTVSPropertyOp2
 70
     1
102
RTVSPropertyOp3
 70
     1
102
RTVSPropertyOp4
 70
     1
102
RTVSPropertyOp5
 70
     1
102
RTVSPropertyOp6
 70
     1
102
RTVSPropertyOp7
 70
     1
102
RTVSPropertyOp8
 70
     1
102
RTVSPropertyOp9
 70
     1
102
RTVSPropertyOp10
 70
     1
102
RTVSPropertyOp11
 70
     1
102
RTVSPropertyOp12
 70
     1
102
RTVSPropertyOp13
 70
     1
102
RTVSPropertyOp14
 70
     1
102
RTVSPropertyOp15
 70
     1
102
RTVSPropertyOp16
 70
     1
102
RTVSPropertyOp17
 70
     1
102
RTVSPropertyOp18
 70
     1
102
RTVSPropertyOp19
 70
     1
102
RTVSPropertyOp20
 70
     1
102
RTVSPropertyOp21
 70
     1
102
RTVSPropertyOp22
 70
     1
102
RTVSPropertyOp23
 70
     1
102
RTVSPropertyOp24
 70
     1
102
RTVSPropertyOp25
 70
     1
102
RTVSPropertyOp26
 70
     1
102
RTVSPropertyOp27
 70
     1
102
RTVSPropertyOp28
 70
     1
102
RTVSPropertyOp29
 70
     1
102
RTVSPropertyOp30
 70
     1
102
RTVSPropertyOp31
 70
     1
102
RTVSPropertyOp32
 70
     1
  0
XRECORD
  5
3AB
102
{ACAD_REACTORS
330
3AA
102
}
330
3AA
100
AcDbXrecord
280
     1
102
RTVSPropertyOp0
 70
     1
102
RTVSPropertyOp1
 70
     1
102
RTVSPropertyOp2
 70
     1
102
RTVSPropertyOp3
 70
     1
102
RTVSPropertyOp4
 70
     1
102
RTVSPropertyOp5
 70
     1
102
RTVSPropertyOp6
 70
     1
102
RTVSPropertyOp7
 70
     1
102
RTVSPropertyOp8
 70
     1
102
RTVSPropertyOp9
 70
     1
102
RTVSPropertyOp10
 70
     1
102
RTVSPropertyOp11
 70
     1
102
RTVSPropertyOp12
 70
     1
102
RTVSPropertyOp13
 70
     1
102
RTVSPropertyOp14
 70
     1
102
RTVSPropertyOp15
 70
     1
102
RTVSPropertyOp16
 70
     1
102
RTVSPropertyOp17
 70
     1
102
RTVSPropertyOp18
 70
     1
102
RTVSPropertyOp19
 70
     1
102
RTVSPropertyOp20
 70
     1
102
RTVSPropertyOp21
 70
     1
102
RTVSPropertyOp22
 70
     1
102
RTVSPropertyOp23
 70
     1
102
RTVSPropertyOp24
 70
     1
102
RTVSPropertyOp25
 70
     1
102
RTVSPropertyOp26
 70
     1
102
RTVSPropertyOp27
 70
     1
102
RTVSPropertyOp28
 70
     1
102
RTVSPropertyOp29
 70
     1
102
RTVSPropertyOp30
 70
     1
102
RTVSPropertyOp31
 70
     1
102
RTVSPropertyOp32
 70
     1
  0
XRECORD
  5
38F
102
{ACAD_REACTORS
330
38E
102
}
330
38E
100
AcDbXrecord
280
     1
102
RTVSPropertyOp0
 70
     1
102
RTVSPropertyOp1
 70
     1
102
RTVSPropertyOp2
 70
     1
102
RTVSPropertyOp3
 70
     1
102
RTVSPropertyOp4
 70
     1
102
RTVSPropertyOp5
 70
     1
102
RTVSPropertyOp6
 70
     1
102
RTVSPropertyOp7
 70
     1
102
RTVSPropertyOp8
 70
     1
102
RTVSPropertyOp9
 70
     1
102
RTVSPropertyOp10
 70
     1
102
RTVSPropertyOp11
 70
     1
102
RTVSPropertyOp12
 70
     1
102
RTVSPropertyOp13
 70
     1
102
RTVSPropertyOp14
 70
     1
102
RTVSPropertyOp15
 70
     1
102
RTVSPropertyOp16
 70
     1
102
RTVSPropertyOp17
 70
     1
102
RTVSPropertyOp18
 70
     1
102
RTVSPropertyOp19
 70
     1
102
RTVSPropertyOp20
 70
     1
102
RTVSPropertyOp21
 70
     1
102
RTVSPropertyOp22
 70
     1
102
RTVSPropertyOp23
 70
     1
102
RTVSPropertyOp24
 70
     1
102
RTVSPropertyOp25
 70
     1
102
RTVSPropertyOp26
 70
     1
102
RTVSPropertyOp27
 70
     1
102
RTVSPropertyOp28
 70
     1
102
RTVSPropertyOp29
 70
     1
102
RTVSPropertyOp30
 70
     1
102
RTVSPropertyOp31
 70
     1
102
RTVSPropertyOp32
 70
     1
  0
XRECORD
  5
391
102
{ACAD_REACTORS
330
390
102
}
330
390
100
AcDbXrecord
280
     1
102
RTVSPropertyOp0
 70
     1
102
RTVSPropertyOp1
 70
     1
102
RTVSPropertyOp2
 70
     1
102
RTVSPropertyOp3
 70
     1
102
RTVSPropertyOp4
 70
     1
102
RTVSPropertyOp5
 70
     1
102
RTVSPropertyOp6
 70
     1
102
RTVSPropertyOp7
 70
     1
102
RTVSPropertyOp8
 70
     1
102
RTVSPropertyOp9
 70
     1
102
RTVSPropertyOp10
 70
     1
102
RTVSPropertyOp11
 70
     1
102
RTVSPropertyOp12
 70
     1
102
RTVSPropertyOp13
 70
     1
102
RTVSPropertyOp14
 70
     1
102
RTVSPropertyOp15
 70
     1
102
RTVSPropertyOp16
 70
     1
102
RTVSPropertyOp17
 70
     1
102
RTVSPropertyOp18
 70
     1
102
RTVSPropertyOp19
 70
     1
102
RTVSPropertyOp20
 70
     1
102
RTVSPropertyOp21
 70
     1
102
RTVSPropertyOp22
 70
     1
102
RTVSPropertyOp23
 70
     1
102
RTVSPropertyOp24
 70
     1
102
RTVSPropertyOp25
 70
     1
102
RTVSPropertyOp26
 70
     1
102
RTVSPropertyOp27
 70
     1
102
RTVSPropertyOp28
 70
     1
102
RTVSPropertyOp29
 70
     1
102
RTVSPropertyOp30
 70
     1
102
RTVSPropertyOp31
 70
     1
102
RTVSPropertyOp32
 70
     1
  0
XRECORD
  5
393
102
{ACAD_REACTORS
330
392
102
}
330
392
100
AcDbXrecord
280
     1
102
RTVSPropertyOp0
 70
     1
102
RTVSPropertyOp1
 70
     1
102
RTVSPropertyOp2
 70
     1
102
RTVSPropertyOp3
 70
     1
102
RTVSPropertyOp4
 70
     1
102
RTVSPropertyOp5
 70
     1
102
RTVSPropertyOp6
 70
     1
102
RTVSPropertyOp7
 70
     1
102
RTVSPropertyOp8
 70
     1
102
RTVSPropertyOp9
 70
     1
102
RTVSPropertyOp10
 70
     1
102
RTVSPropertyOp11
 70
     1
102
RTVSPropertyOp12
 70
     1
102
RTVSPropertyOp13
 70
     1
102
RTVSPropertyOp14
 70
     1
102
RTVSPropertyOp15
 70
     1
102
RTVSPropertyOp16
 70
     1
102
RTVSPropertyOp17
 70
     1
102
RTVSPropertyOp18
 70
     1
102
RTVSPropertyOp19
 70
     1
102
RTVSPropertyOp20
 70
     1
102
RTVSPropertyOp21
 70
     1
102
RTVSPropertyOp22
 70
     1
102
RTVSPropertyOp23
 70
     1
102
RTVSPropertyOp24
 70
     1
102
RTVSPropertyOp25
 70
     1
102
RTVSPropertyOp26
 70
     1
102
RTVSPropertyOp27
 70
     1
102
RTVSPropertyOp28
 70
     1
102
RTVSPropertyOp29
 70
     1
102
RTVSPropertyOp30
 70
     1
102
RTVSPropertyOp31
 70
     1
102
RTVSPropertyOp32
 70
     1
  0
XRECORD
  5
395
102
{ACAD_REACTORS
330
394
102
}
330
394
100
AcDbXrecord
280
     1
102
RTVSPropertyOp0
 70
     1
102
RTVSPropertyOp1
 70
     1
102
RTVSPropertyOp2
 70
     1
102
RTVSPropertyOp3
 70
     1
102
RTVSPropertyOp4
 70
     1
102
RTVSPropertyOp5
 70
     1
102
RTVSPropertyOp6
 70
     1
102
RTVSPropertyOp7
 70
     1
102
RTVSPropertyOp8
 70
     1
102
RTVSPropertyOp9
 70
     1
102
RTVSPropertyOp10
 70
     1
102
RTVSPropertyOp11
 70
     1
102
RTVSPropertyOp12
 70
     1
102
RTVSPropertyOp13
 70
     1
102
RTVSPropertyOp14
 70
     1
102
RTVSPropertyOp15
 70
     1
102
RTVSPropertyOp16
 70
     1
102
RTVSPropertyOp17
 70
     1
102
RTVSPropertyOp18
 70
     1
102
RTVSPropertyOp19
 70
     1
102
RTVSPropertyOp20
 70
     1
102
RTVSPropertyOp21
 70
     1
102
RTVSPropertyOp22
 70
     1
102
RTVSPropertyOp23
 70
     1
102
RTVSPropertyOp24
 70
     1
102
RTVSPropertyOp25
 70
     1
102
RTVSPropertyOp26
 70
     1
102
RTVSPropertyOp27
 70
     1
102
RTVSPropertyOp28
 70
     1
102
RTVSPropertyOp29
 70
     1
102
RTVSPropertyOp30
 70
     1
102
RTVSPropertyOp31
 70
     1
102
RTVSPropertyOp32
 70
     1
  0
XRECORD
  5
3A9
102
{ACAD_REACTORS
330
3A8
102
}
330
3A8
100
AcDbXrecord
280
     1
102
RTVSPropertyOp0
 70
     1
102
RTVSPropertyOp1
 70
     1
102
RTVSPropertyOp2
 70
     1
102
RTVSPropertyOp3
 70
     1
102
RTVSPropertyOp4
 70
     1
102
RTVSPropertyOp5
 70
     1
102
RTVSPropertyOp6
 70
     1
102
RTVSPropertyOp7
 70
     1
102
RTVSPropertyOp8
 70
     1
102
RTVSPropertyOp9
 70
     1
102
RTVSPropertyOp10
 70
     1
102
RTVSPropertyOp11
 70
     1
102
RTVSPropertyOp12
 70
     1
102
RTVSPropertyOp13
 70
     1
102
RTVSPropertyOp14
 70
     1
102
RTVSPropertyOp15
 70
     1
102
RTVSPropertyOp16
 70
     1
102
RTVSPropertyOp17
 70
     1
102
RTVSPropertyOp18
 70
     1
102
RTVSPropertyOp19
 70
     1
102
RTVSPropertyOp20
 70
     1
102
RTVSPropertyOp21
 70
     1
102
RTVSPropertyOp22
 70
     1
102
RTVSPropertyOp23
 70
     1
102
RTVSPropertyOp24
 70
     1
102
RTVSPropertyOp25
 70
     1
102
RTVSPropertyOp26
 70
     1
102
RTVSPropertyOp27
 70
     1
102
RTVSPropertyOp28
 70
     1
102
RTVSPropertyOp29
 70
     1
102
RTVSPropertyOp30
 70
     1
102
RTVSPropertyOp31
 70
     1
102
RTVSPropertyOp32
 70
     1
  0
XRECORD
  5
39F
102
{ACAD_REACTORS
330
39E
102
}
330
39E
100
AcDbXrecord
280
     1
102
RTVSPropertyOp0
 70
     1
102
RTVSPropertyOp1
 70
     1
102
RTVSPropertyOp2
 70
     1
102
RTVSPropertyOp3
 70
     1
102
RTVSPropertyOp4
 70
     1
102
RTVSPropertyOp5
 70
     1
102
RTVSPropertyOp6
 70
     1
102
RTVSPropertyOp7
 70
     1
102
RTVSPropertyOp8
 70
     1
102
RTVSPropertyOp9
 70
     1
102
RTVSPropertyOp10
 70
     1
102
RTVSPropertyOp11
 70
     1
102
RTVSPropertyOp12
 70
     1
102
RTVSPropertyOp13
 70
     1
102
RTVSPropertyOp14
 70
     1
102
RTVSPropertyOp15
 70
     1
102
RTVSPropertyOp16
 70
     1
102
RTVSPropertyOp17
 70
     1
102
RTVSPropertyOp18
 70
     1
102
RTVSPropertyOp19
 70
     1
102
RTVSPropertyOp20
 70
     1
102
RTVSPropertyOp21
 70
     1
102
RTVSPropertyOp22
 70
     1
102
RTVSPropertyOp23
 70
     1
102
RTVSPropertyOp24
 70
     1
102
RTVSPropertyOp25
 70
     1
102
RTVSPropertyOp26
 70
     1
102
RTVSPropertyOp27
 70
     1
102
RTVSPropertyOp28
 70
     1
102
RTVSPropertyOp29
 70
     1
102
RTVSPropertyOp30
 70
     1
102
RTVSPropertyOp31
 70
     1
102
RTVSPropertyOp32
 70
     1
  0
XRECORD
  5
3A7
102
{ACAD_REACTORS
330
3A6
102
}
330
3A6
100
AcDbXrecord
280
     1
102
RTVSPropertyOp0
 70
     1
102
RTVSPropertyOp1
 70
     1
102
RTVSPropertyOp2
 70
     1
102
RTVSPropertyOp3
 70
     1
102
RTVSPropertyOp4
 70
     1
102
RTVSPropertyOp5
 70
     1
102
RTVSPropertyOp6
 70
     1
102
RTVSPropertyOp7
 70
     1
102
RTVSPropertyOp8
 70
     1
102
RTVSPropertyOp9
 70
     1
102
RTVSPropertyOp10
 70
     1
102
RTVSPropertyOp11
 70
     1
102
RTVSPropertyOp12
 70
     1
102
RTVSPropertyOp13
 70
     1
102
RTVSPropertyOp14
 70
     1
102
RTVSPropertyOp15
 70
     1
102
RTVSPropertyOp16
 70
     1
102
RTVSPropertyOp17
 70
     1
102
RTVSPropertyOp18
 70
     1
102
RTVSPropertyOp19
 70
     1
102
RTVSPropertyOp20
 70
     1
102
RTVSPropertyOp21
 70
     1
102
RTVSPropertyOp22
 70
     1
102
RTVSPropertyOp23
 70
     1
102
RTVSPropertyOp24
 70
     1
102
RTVSPropertyOp25
 70
     1
102
RTVSPropertyOp26
 70
     1
102
RTVSPropertyOp27
 70
     1
102
RTVSPropertyOp28
 70
     1
102
RTVSPropertyOp29
 70
     1
102
RTVSPropertyOp30
 70
     1
102
RTVSPropertyOp31
 70
     1
102
RTVSPropertyOp32
 70
     1
  0
ENDSEC
  0
EOF
